&title=多余的解释
&artist=大水母绚烂
&first=0.164
&des=IAA
&lv_5=13
&des_5=IAA
&inote_5=
(128){4}Ch[4:3],,,,1,
2,3,4,
5,6,7,8-4[16:1],
{8}1/8,,,4,2,7,,,2/1,
,,4/3,5/6,7/8,,1-5[0.2344##0.1562]/8v5[0.2344##0.1562],
1b/8b,3,3,1,{16}7,8,{8}7,4,3,
{16},,1,2,{8}3,7<5[4:1],{2}2<7-2[4:1],
{16},,7,7,{8}5pp5[16:7],5qq5[16:5],,,,,3V14[4:3],
5V74[8:5],{16}B4f,B4f,B4f,B4f,B4f,B4f,{8}B4f,,,,8qq8[8:5],
1pp1[2:1],8,{2}1,
{16},,5,3,{8}1,7,B7/B2,8/1,B7/B2,1/8,
,6,4,2,{64}1bx,8x,7x,6x,5x,4x,,,1bx,8x,7x,6x,5x,4x,,,{4}2h[4:1],
{8},7/8,6,5/7,4,3/4,2,1,
1,8b-5b[8:1],1v4[8:1],8,1,7,1,3,
2h[16:3],{16}6,7,{4}8-5q4[4:1],{16}8x,1x,{8}2<7-3<6[4:1],,2,
,1-5[8:1],7-3[8:1],1,7,2h[8:1],8,6b,
,1,2,1,7,6,8,1bx-4[8:1],
7bx-5v4-2b[8:1],1,7,2x,8/7,6,5/4,3,
1/8-4[16:1],7,8/1-5[16:1],2,1/8-4[16:1],7,8/1-5[16:1],2,
1/8,{16}7,7,{8}6q3[8:1],3<6[8:1],6,,,2h[8:7],
3,4,5,4,3,4,5,1-5[0.2344##0.1172]/8-4[0.2344##0.1172],
1b/8b,6,7,1,3,{16}2,2,{8}5,6,
8,{16}7,7,{8}4,2,3h[8:1],6,5,1b,
7,6,5,3,6,{16}5,5,{8}2bh[8:1],8,
7,5,5,3,2/1,8,7/6,5h[8:1],
,2,1,8,7,6z2[8:1],8b,8b,
1,1,8,8,6h[8:1],{16}3,3,{8}2,1/8,
C,5,5,4,4,6,6,3,
3,7,7,2,2,{16}8,8,1,1,8,1,
{4}8,{8}4h[4:1],3,2h[4:1],1,8h[4:1],7,
6h[4:1],5,5,6-8v1-3[16:3],1/8,6,,5/4,
7-4[16:1],6,7/2-6[16:1],3,2/8-4[16:1],7,8/3-7[16:1],2,
3/6-1[2:1],5,6,B7,B8,E1,{4}A1f,
B7/B6/B2/B3,{8}1h[4:1],2,3h[4:1],4,5h[4:1],6,
7h[4:1],8,8,3-1v8-6[16:3],8/1,3,,4/5,
2-5[16:1],3,2/7-3[16:1],6,7/1-5[16:1],2,1/6-2[16:1],7,
6/3-8[2:1],4,3,B2,B1,E1,{4}A8,
Ch[8:1],{8}4h[4:1],3,2h[4:1],1,8h[4:1],7,
6h[4:1],5,5,6-8v1-3[16:3],1/8,6,,5/4,
7-4[16:1],6,7/2-6[16:1],3,2/8-4[16:1],7,8/3-7[16:1],2,
3/5,6xh[8:1],4xh[8:1],2xh[8:1],8xh[8:1],6xh[4:1],{32},,,4x,3x,2x,{16}1xh[16:3],
,,,,{8}7bh[4:1],6,5h[4:1],4,3h[4:1],2,
1-5[16:1],7-3[16:1],1,7,1,7/2,5,5,
3,{16}2,2,{8}4,1,6,{16}7,7,{8}5,8,
8/1,{16}1,8,{8}1,3,4,5,5,6<2[8:1],
2v4[8:1],6bx,3xh[8:1],E3,1h[4:1],{16}8,8,{8}7h[4:1],B6,
5h[4:1],{16}4,4,,,{8}6-8v1-3[16:3],8/1,6,,,6-1[16:1],
7,6/3>8[16:1],2,3/5-1[16:1],{16}6,6,{8}5/2-6[16:1],3,
2/7-4[2:1],{16}8,8,{8}7,B6,B5,E5,{4}A4f,
B7/B6/B2/B3/C,{8}6h[8:1],E7,8h[4:1],{16}1,1,{8}2h[4:1],B3,
4h[4:1],{16}5,5,,,{8}3-1v8-6[16:3],1/8,3,,,3-8[16:1],
2,3/6<1[16:1],7,6/4-8[16:1],{16}3,3,{8}4/7-3[16:1],6,
7/2-5[2:1],{16}1,1,{8}2,B3,B4,E5,{4}A5,
Ch[8:1],{8}3h[8:1],E3,1h[4:1],{16}8,8,{8}7h[4:1],B6,
5h[4:1],{16}4,4,,,{8}6-8v1-3[16:3],8/1,6,,,6-1[16:1],
7,6/3>8[16:1],2,3/5-1[16:1],{16}6,6,{8}5/2-6[16:1],3,
2,7xh[8:1],5xh[8:1],3xh[8:1],1xh[8:1],7xh[4:1],{32},,,4x,3x,2x,{16}1xh[16:3],
,,,,{8}7bh[4:1],B6,5h[4:1],{16}4,4,{8}3h[4:1],2,
1-5[16:1],7-3[16:1],1,7,1,7/2,5,5,
3,{16}6,6,{8}4,1,{16}2,2,7,7,1,8,1,8,
1,8,1,8,{8}1/8,3,4,5,5,6b<2b[8:1],
2bv4b[8:1],6b,,,{2}Ch[8:1],
E
