&title=星の約束
&artist=Poppin'Party
&des=Yui
&first=1.399999
&lv_5=13.5
&des_5=Yui
&inote_5=
(175){4},,,,6h[4:1],
{8}5,6,4,5,,4/5,
,3,4,3,{4}4h[4:1],3,
{8}2/4,2/4,,5/7,{4}5/7,{8}1/8,1/8,
{1}1-4[8:1]/8-5[8:1],
{4}3b-8[8:1],3/5,{8}7-4[8:1],5,{4}7,
3-1[8:1],{16}5/3,,,8,{8}2-5[8:1],2,{4}8,
6-1[8:1],6/4,{8}2-5[8:1],4,{4}2,
{8}1/6<1[8:1],2,3,4,{16}4,5,4,5,3,6,3,6,
{4}2b-5[8:1],2/1,{8}8-6[8:1],8,{4}1,
{8}4-2[8:1],4,{16}5,,,8,{8}1-5[8:1],1,{4}8,
7<4[8:1],{16}7/8,,,2,{8}1-6[8:1],1,{4}2,
2>5[8:1],{16}2/1,,,6,{8}4,5,{16}4,5,{8}4,
4x/5x,6,7/8,1<6[8:1],2,3,4,5/7,
8,1/2,3>8[8:1],4,5b,6b,,,{4}3/4-8<6[8:5],
3,3,4,
5/1>5[8:5],6,6,6,
7/6qq2[8:5],7,7,8,
{8}8,1,8,2,8,3,8,4,
{4}8-6-4[2:1],3,2,1,
8-2-4[2:1],5,6,7,
{8}8/7,1/6,,2/1,{4}8/3,{8}8,1/5,
3/7,2-5[8:1]/1-6[8:1],,2/1,,,{4}1b,
3/5,2,{8}4/6,6/4,{4}7,
3/5,B2,{8}4/6,4/6,{4}B7,
4,4>8[4:1],8<4[4:1],4>8[4:1],
8,{8}5,5h[8:3],,3,{4}3,
6/5,8,{8}5/6h[4:1],4,{4}3,
4/3,1,{8}4/3h[4:1],5,{4}6,
{8}6/3,2-5[8:1]/7-4[8:1],,2/7,,3/6,2/7,1>4[8:1]/8<5[8:1],
,8/1-5[8:1],,1,{4}7,8b/2b,
{8}A1,,,B2,{4}B3,A4,
,D6,E7,D8,
{8}A8,,,B7,{4}B6,A5,
A1/E1/B1,A7/E8/B7,A3/E3/B3,A5/E6/B5,
3/4h[4:1],1,{8}4/5,6,{4}7/1,
6/5h[4:1],8,{8}5/4,3,{4}2/8,
{8}6h[4:1]/3h[4:1],,,6/3,3/6,6/3,4/5,5/4,
5h[4:1]/4h[4:1],{16},,,,5,4,5,3,5,2,5,1,5,1xh[16:17],
{1}5xh[1:1],
{64},D2/D6,A2/A6,D3/D7,A3/A7,D4/D8,{32}A4f/A8f,,,,,{8}8x-4[8:1],8,2-6[8:1],2,5<4[2:1],5,
,1,{4}1h[8:3],{8},,2,3/4,
5h[4:1],,,3/6,5,2/6,5,6/1h[8:7],
,8z4b[8:3],{4}8,{8},,,,3h[8:1],
{16}6,5,{8}6,7h[8:3],,1,{4}1,
{8}6h[8:1],{16}3,4,{8}3,2h[8:3],,8,{4}8,
{8}1-7<6[8:1],2,3,4-2<1[8:1],5,6,7-5-1[4:1],8,
,2,{4}3-6-2[4:1],{8},,,,2x/4x,
3,3,4x/6x,5,5,1/8,7,
3x/5x,7x/8x,6x/5x,2x/1x,{16}2,4,3,5,4,6,{8}5,
{4}2b,{8}1x-5[8:1],1,7-3[8:1],7,4>5[2:1],4,
,8,{4}8h[8:3],{8},,7,6/5,
4h[4:1],,,6/3,4,7/3,4,3/8h[8:7],
,1s5b[8:3],{4}1,,,2x>5[4:1],
{8}5x<8[4:1],5x,,1x,{4}1x>5[4:1],
5>1[4:1],{8}6,7h[8:3],,,{4}2,
7x<4[4:1],{8}4x>1[4:1],4x,,8x,{4}8x<4[4:1],
4<8[4:1],{8}3,2,,1,{4}7/2,
3h[4:1],5,{8}7-5[8:1],4,{4}7,
2h[4:1],{16}5pp1[8:3],,,2,{8}5,3,{4}3,
3h[4:1],7,{8}4,3,{16}2,5,1,5,
1,5,1,5,{32}1x,8,7,6,5,4,3,2,1,8,7,6,5,4,3,2,1,8,7,6,5,4,3,2,
{1}1bw5[1:1],
{8},,,,1b/8b,8b/1b,,,{4}2bx-6-4-1[8:5],
8,7,6,
{8}5-7[8:1],5,1-3[8:1],1,{4}8-5b[8:1],2,
7bx-3-5-8[8:5],1,2,3,
{8}4-2[8:1],4,8-6[8:1],8,1-5b[8:1],1,{4}7b,
{8}8bx-4[8:1],8,2bx-6[8:1],2,5bx-8[8:1],5,3bx-7[8:1],3,
6bx-4[8:1],6,1bx-3[8:1],1,7bx-5[8:1],7,2bx-4[8:1],2,
8bx-6b[8:1],8,1bx-5b[8:1],1,7bx-4b[8:1],7,2bx-6b[8:1],2,
1bx-5b[8:1],1,8bx-4b[8:1],8,7bx-3b[8:1],7,,,2/4,
1,8,7/5,8,1,2/4,1,
8,7/5,8,1,{4}2-7[8:1]/6-3[8:1],2v5[8:1]/6v1[8:1],
{1}6/2<3[2:3],
{16},,,,,,,,,,,,,,6,7,
{1}8h[1:6],
E
