&title=脳味噌リジッドガール
&artist=森羅万象
&first=0.75
&des=白明星琉姬
&lv_5=13
&inote_5=(181)
{8}3h[8:1]/4h[8:1],,5h[8:1]/6h[8:1],,3/4,3h[8:1]/4h[8:1],,5h[8:1]/6h[8:1],,2h[8:1]/4h[8:1],,5/7,5h[4:1]/7,,C,,
{8}3,3,4h[4:1],,{16}2h[16:3],,,1h[16:3],,,2,,{8},7,7/8-4[8:1],,6h[4:1],,5,,7,7,5h[4:1],,{16}6h[16:3],,,4h[16:3],,,5,,{8},3,3/4-8[8:1],,2h[4:1],,1,,3,3,4h[4:1],,{16}2h[16:3],,,1h[16:3],,,2,,{8},8,8/1-5[8:1],,7h[4:1],,6,,7,7,5,5,{16}6h[16:3],,,4h[16:3],,,5,,{8},3,3,4,4-8[8:1]/2,,1,,
{4}2h[4:15],1,8,7,6,5,4,3,4,B4,C,B8,{8}8,8,7,,6bx,6bx,5bx,,3x,3x,4-8x[8:1],4x,1bx,2bx,3bx,4bx,3x,3x,4-8x[8:1],4x,1bx,2bx,3bx,4hbx[4:1],,8,,1/7,1/7,,2/6,,3,3,5,5,4bx,4bx,6bx,5bx,{4}7h[4:2],8,5h[4:2],1,4h[4:2],8,{8}3h[4:1],1b,1,,
{4}8h[4:15],1,{8}1,1,2,,2,2,3,,3,3,4,,4,,5,,5,5,6,,6,6,7,,7bx,6bx,5bx-1[8:1],,8-4x[8:1],8x,2-6x[8:1],2x,8bx,7bx,6bx,5bx,4-8x[8:1],4x,7-3x[8:1],7x,1bx,2bx,3bx,4hbx[4:1],,8,8,,1h[4:1]/7h[4:1],,,,2bx/6bx,2bx-7b[8:1]/6bx-3b[8:1],,2bx/6bx,,,4bx/8bx,,
{8}1x,1x,8bx,2bx,8hbx[4:1],,3,,7x,7x,4bx,7bx,5hbx[4:1],,7,,8,8,1,7/1,7,5,4-7[8:1]/6,,2b-5[8:1],,8b-3[8:1],,6b-1[8:1],,5hb[4:1],,,7hx[8:1]/5hx[8:1],,4,5hx[4:1]/4hx[4:1],,,,{4}3-8[8:1],4-7[8:1],2-5[8:1],6p4>5b[4:6],3hb[4:7],,,,,,{8},B4,C,,
{16}2,,3,4,3,,7,,6,5,6,,3,,3,,6,,6,5,7,,3,,3,4,2,,1,,1,,8,,7,8,6,,1,,2,1,3h[4:1],,8,,8,,{8}1bx/7bx,,2hbx[16:1]/6hbx[16:1],3hbx[16:1]/5hbx[16:1],4hbx[16:1]/6hbx[16:1],3hbx[16:1]/7hbx[16:1],2bx/8bx,,2h[8:1],,2h[8:1],1x,2h[8:1],3x,2h[8:1],4x,2h[8:1],5x,2h[8:1],6x,7h[8:1],8,1bx/6bx,,{4}2-5[8:1],{8}6-1[8:1],6,3-8[8:1],3,7<1[4:2],7,4h[8:4],,,,{8},8,1bx/7bx,,
{16}7,,6,5,6,,2,,3,4,3,,6,,6,,3,,3,4,2,,6,,6,5,7,,8,,8,,1,,2,1,3,,8,,7,8,6h[4:1],,1,,1,,{8}8bx/2bx,,7hbx[16:1]/3hbx[16:1],6hbx[16:1]/4hbx[16:1],5hbx[16:1]/3hbx[16:1],6hbx[16:1]/2hbx[16:1],7bx/1bx,,7h[8:1],,7h[8:1],8x,7h[8:1],6x,7h[8:1],5x,7h[8:1],4x,7h[8:1],3x,7h[8:1],2x,7h[8:1],1bx-5[8:1],,8,7-4>1[8:3],,2h[4:2],,,{24}8x,7x,6x,{4}5bx-1[8:1],,2bx/8bx,3bx/7bx,6-2x[8:1],5-1x[8:1],4-8x[8:1],3-7x[8:1],2bq5x[4:2],,{8},8hx[16:1],8bx,,
{4}2,3/4,5,4/6,7,5/7,8,1/7,{8}2,2,1,3,{16}7h[16:3],,,8h[16:3],,,6h[4:1],,,,{24}A4,E5,B5,B6,E7,A7,D4,E4,B4,C,B7,E8,D8,,,{4}A8f/2,{4}7,7/8,1,1/2,3,2/4,5,4/6,{8}7,7,8,6,{16}2h[16:3],,,1h[16:3],,,3hb[8:7],,{4},,,4x,
{1}4x/5-8x[4:4],4-1x[4:4],5-8x[4:4],{8}4-1x[8:1],,,,7x,8x,1bx/6bx,,{8}2-5x[8:1],2x,6-1x[8:1],6x,4bx,3bx,2bx,1bx,2-5x[8:1],2x,6-1x[8:1],6x,4bx,3bx,2bx,1hbx[4:1],,4,,2/5,2-5[8:1]/5-1[8:1],,,,{16}7,8,6,,2,1,3,,{24}8bx,7x,6x,5x,,,1bx,2x,3x,4x,,,{4}8-2[8:1],3-8[8:1],7-3[8:1],4-7[8:1],6>4-2<8[8:3],3h[8:3],,3bx/7bx,2-8[8:1],7-2[8:1],3-7[8:1],6-3[8:1],4<6-8>2[8:3],7h[8:3],,7bx/3bx,
{8}2,1,3,1,A4,A3,A2,A1,7,8,6,8,A5,A6,A7,A8,2hx[8:1]/1-5x[8:1],,E3/B1/B2/B3f/E4/C/B4/B5,,7hx[8:1]/8-4x[8:1],,E7/B8/B7/B6f/E6/C/B5/B4,,4x/5x,4x/5x,3x/6x,3x/6x,2x/7x,2x/7x,1-5x[8:1]/8-4x[8:1],,1bx>8[4:4]/8bx<1[4:4],,,,,,,,,,,,,4x/5x,2bx/7bx,,
{8}3,4,2h[8:3]/5,{16}E5,E4,E3,E2,E1,,{8}1/7,,6,5,7h[8:3]/4,{16}E5,E6,E7,E8,E1,,{8}8/2,,3,4,2h[8:3]/5,{16}E5,E4,E3,E2,E1,,{8}1-3[8:1]/7,,1-6[8:1]/7,,1-4[8:1]/4,,1-7[8:1]/8,,1/2-5-7-4-1[4:3],,2/6h[4:4],,,,,,,,3,2/4-7[8:1],,1,,2bx,3bx/8bx-5[8:1],,8-3x[8:1]/2,,8-5x[8:1]/6,7,8-3x[8:1]/2,1,8-5x[8:1]/6,7,8-4>5x[4:2]/2h[4:2],,8x,,,,1bx,,
{8}3,4,2h[8:3]/5,{16}E5,E4,E3,E2,E1,,{8}1/7,,6,5,7h[8:3]/4,{16}E5,E6,E7,E8,E1,,{8}8/2,,3,4,2h[8:3]/5,{16}E5,E4,E3,E2,E1,,{8}1-3[8:1]/7,,1-6[8:1]/7,,1-4[8:1]/4h[8:1],,1-7[8:1]/8h[8:1],,1/2-5-7-4-1[4:3],,2/6h[4:4],,A5,A7,B5,A4,A1,,3,2/4-8[8:1],,1,,,2,3x/1x-6[8:1],,1-4x[8:1]/3,2,1-6<1x[4:1]/7,8,1>7x[8:5]/3,2x,3,4hbx[4:3],,,,,,8bx,,{4}1-7x[8:1],2-6x[8:1],3-5x[8:1],4q5<4x[4:3],7hbx[4:2],,{8},8hx[16:1],8bx,,
{4}7hx[4:1],8,{16}6hx[16:3],,,5x,,,{8}4hx[8:3]/7x,,3,{4}3-7[8:1],2hx[4:1],1bx,2hx[4:1],1,{16}3hx[16:3],,,4x,,,{8}5hx[8:3]/2x,,6,{4}6-2[8:1],7hx[4:1],8bx,{8}1x,1,8x,8,{16}2hx[16:3],,,3hx[16:3],,,{8}4-8x[8:1],,7,{4}7h[4:1],1x,2bx/6bx,{8}7x,7,8x,7,{16}6hx[16:3],,,5x,{8}6,4hx[8:3]/7x,,6,6,5,7-1x[8:1]*-5[8:1],,7x,,
{8}2,2,4,3,7,7,5,6,{4}1-3x[8:1],7-5x[8:1],8-4x[8:1],,{8}7,7,5,6,2,2,4,3,8-6x[8:1],8x,2-4x[8:1],2x,1-5x[8:1],,,,3b<5x[8:1],3x,5x,6x,7b<4x[8:1],7x,4x,3x,2b>5x[8:1],2x,5x,6x,8b<4x[8:1],8x,4x,3x,1-5[8:1],1,7-3[8:1],7,4-8[8:1],4,6,6,{16}2bhx[16:3],,,1bx,2,,3bx/8bx,,7-4[8:1],8,,8,7,,1,,{16}2h[8:1]/5h[8:1],,,3h[8:1]/6h[8:1],,,4h[8:1]/7h[8:1],,,,8x,,8x,,,,7h[8:1]/4h[8:1],,,6h[8:1]/3h[8:1],,,5h[8:1]/2h[8:1],,,,1x,,1x,,,,2h[8:1]/5h[8:1],,,3h[8:1]/6h[8:1],,,4h[8:1]/7h[8:1],,,,8x,,8x,,,,7hbx[8:1]/4hbx[8:1],,,6hbx[8:1]/3hbx[8:1],,,5bx/2bx,,2bx/5bx,,1bx,,{4}1b-5x[8:1],
{4}1x>8[4:6],,,,2hx[4:4],,,,3hx[4:3],,{8},4x,4x,,{4}3x/5x,6hx[8:1]/2hx[8:1],6hx[8:1]/2hx[8:1],1x/7x,{16}1bx,,,1,8,,8,,6x,8,,8,1x,,1,,{8}3bx-7[8:1],3bx,,2bx-5[8:1],,8bx,8bx,,{16}1x,,1,4,,4,2x,,2,6,,6,{8}5x-1[8:1],5,7bx-3[8:1],,4bx-8[8:1],,8bx,,1bx/7bx,,{16}3bx,,3,,4,,4bx,2,,7,8,,1bx/6bx,,2x/5x,,3bx,,3,,8,,8bx,4,,4,7,,5bx,,3x,,5bx,,5,,2,,2bx,4-8x[8:1],,,3x,,2bx,,,,{8}1bx-5[8:1],,7bx-3[8:1],7bx,4b-8x[8:1],4bx,8bx,,1x/7x,,1x/7x,2x,3x/8x,7x,1x/6x,2x,3x/8x,6x,1x/5x,3x,8-4x[8:1]/4x,,8x/4>5x[4:3],,2hx[4:4],,,,,,,,{16}8,,7,8,6,,2,1,3,,8,,1bx/7bx,,,,{4}2-5x[8:1],6-2x[8:1]/2x,4-8x[8:1]/6x,7-4x[8:1]/4x,{8}3>5x[4:2]/7x,,,4hx[8:3],,,,,2-4x[8:1]/1-5x[8:1],,1bx/2bx/E3/B1/B2/B3f/E4/C/B4/B5,,7-5x[8:1]/8-4x[8:1],,7bx/8bx/E7/B8/B7/B6f/E6/C/B5/B4,,{8}1x,1,2x/8x,3/7,4v1xb[8:1]/6v1xb[8:1],,,,{4}8-4x[8:1],7-3x[8:1],6-2x[8:1],5p4>5x[8:5],4h[4:2],,,Cf,
{8}7,7,8h[4:1],,{16}6h[16:3],,,5h[16:3],,,6,,{8},3,3/4-8[8:1],,2h[4:1],,1,,2,2,1h[4:1],,{16}2h[16:3],,,8h[16:3],,,1,,{8},7,7/8-4[8:1],,6h[4:1],,5,,7,7,8h[4:1],,{16}6h[16:3],,,5h[16:3],,,6,,{8},4,4/5-1[8:1],,3h[4:1],,2,,3,3,1,1,{16}2h[16:3],,,8,,,{8}3/7,,4/6,{4}4-1[8:1]/6,6-3[8:1]/4,2-6[8:1]/6,2b<3x[4:3]/7h[4:4],,,,{8},2bx/1bx,3bx/4bx,5bx/6bx,7bx/8bxw4b[8:1],,,,
&inote_6=&clock
(181)
{8}2/4,3,7/5,6,2/4,2/4,3,5/7,6,2/4,3,7/5,7/5>2[8:1],,C,,
&inote_7=
