&title=Cyberozar
&artist=削除
&first=0.77
&des=Caerulea
&des_5=Caerulea
&lv_5=13+
&inote_5=(186){4},{1},,{4},,,{8}1/8b,
1b/8-4[8:1],,,,2,{4}4h[4:1],
{8}3,7h[4:1],,2,{2}4h[4:1],
{8}8/1b,8b/1-5[8:1],,,,7,{4}5h[4:1],
{8}6,2h[4:1],,7,{4}5h[4:1],8-5[8:1],
{8}1,1h[4:1],,4,{4}4h[4:1]/B2,{8}3,3h[4:1]/B5,
,6,{4}6h[4:1]/B4,{8}5,5h[4:1]/B7,,,8,
8h[4:1],,5,{4}5h[4:1]/B7,{8}6,6h[4:1]/B4,
,3,{4}3h[4:1]/B5,{8}4,4h[4:1]/B2,,,{4}1>7[4:1],
{8}8,8h[4:1],,,{4}1>7[4:1],
{8}8,8h[4:1],,,{2}1-5[8:1],
{4}8<2[4:1],{8}1,1h[4:1],,,{4}8<2[4:1],
{8}1,1h[4:1],,,{2}8-4[8:1],
{8}2,3,4,{16}5,4,5,4,{8}6h[4:1],,,5h[4:1],
,,7h[4:1],,,{4}6h[4:1],
{8}7,6,5,{16}4,5,4,5,{8}4-8[8:1],{1},{4},{16}7V13[4:1],
,,4h[16:3],{4}7,{8}5-2V48[8:3],6,{4}5,
7-4[8:1],{8}7,1-5[8:1],{16}5-2[8:1],6,{8}7,{16},,,,8-4[8:1],
,,1,{8}8,1-6V83[8:3],6,1,{4}5h[4:1],
{16},,,6,{8}4,8-4[8:1],{16}4-7[8:1],3,{8}2,{16},,,,2V46[4:1],
,,1,{8}2,7h[4:1],{16},,,,8/7,1,2,3,
4/7V53b[4:1],,,8,{8}7,1,,2h[8:3],{16}1,8,7,6,
{4}5,{8}3,4,{4}2-6[8:1],1h[4:1],
{16}5>1[4:1],,,7,{8}5,8-4V25b[8:3],7,8,{4}1h[4:1],
{16},,,2,{8}2,5,{16}4v1[8:1],3,{8}2,{4}4/7-4[8:1],
8h[16:3],{8}5,1,{16}5v8[8:1],6,{8}7,{4}5/2-5[8:1],
{16}2,,,8,{8}4,6/2,{16}5-2>3-8[8:3],4,{8}7,{4}6h[4:1],
{8},,7<5[8:1],8,1,2<8[8:1],3,4,
{4}5-3v8[4:1],{8}5,1,{4}2-6[8:1],2/1-5[8:1],
1/8-4[8:1],8/7-3[8:1],{2}7/6-2>8[2:1],
{8},,2,2h[4:1],{16},,,,8,7,2,3,
7,6,1,2,6,5,2,3,8,7,6,5,4,3,2,1,
8-4[16:1],,,8b/2-6[16:1],,,{8}2b/7-3[16:1],{16},7b/5V38[16:3],,,,,,,6h[8:1],
,,1h[8:1]/5h[8:1],,,{8}3h[8:1]/7h[8:1],{16},2h[8:1],{32},,,,5,6,7,8,,,,,{16}1-5[16:1],
,,1b/7-3[16:1],,,{8}7b/2-6[16:1],{16},2b/4V61[16:3],,,{4}1V37b[4:1],
{8}4h[16:3],{24},,,,,,4/8,3/7,2/6,{2}1V37b[4:1]/5V73b[4:1],
{16},,,2b/5,,,{8}4/7b,{16},1/8,,,{4}2h[4:1]/7h[4:1],
{16},,,7/4b,,,{8}5b/2,{16},8/1,,,{4}6bh[4:1]/3bh[4:1],
{16},,,4h[8:1]/B6,,,{8}7h[8:1]/B1,{16},2h[8:1]/E7,,,{4}5h[8:1]/E4,
{8}8/7,6/1,2/5<4b[8:3],3/4,,,{4}Cf,
{16}7/5,,,4,{8}8-4[8:1],2,8-6[8:1],2,8,4,
5-2[8:1],2>4-8[4:1],5,1h[4:1],,,,8,
7/1-6[8:1],6V48[4:1],{4}1,{16}7bx,6,{8}5,{16}2bx,3,{8}4,
{16}1-6[8:1],,,3,{8}1,4-7<5-2[8:3],8,4,{4}1h[4:1],
{16},,8,1,{8}7,{16}5,6,4,7,{8}5-1[8:1],,5/7-4[8:1],
,7,{4}2-6V84[8:3],{8}2,5h[4:1],,,6,
{16}3,5,{4}2h[8:1],{16}6-1b[8:1],4,{8}7h[8:3],,,,2/8,
3/7,6V48[4:1]/4<5-1[4:1],{16},,,,,,,,2-6[8:1],
,,1,{8}2,8h[4:1],{16}5,4,3,2,1/8,7,6,5,
4V61[4:1],,,2,{8}4,3-6>4-7[8:3],,3/8h[8:3],{16},,,,,,,1,
{8}1,{16}7,8,7,8,{8}6-4[8:1],4V25[4:1],6,
2h[4:1],{16},,,,6,4,{4}7h[8:1],{16}3-8b[8:1],5,{8}2h[8:3],
{16},,,,,,7,6,5,4,{8}3,1-6b[8:1],1,
8h[4:1],{16},,,,6,5,4,3,{8}2,{4}8-3b[8:1],
{16}1-6-2[4:1],,,4,{8}1,5h[4:1],,,3/7,{16}1,2,
{4}3-7-4[4:1],4V25[4:1],{16},,,,6,7,8,1,
{1}2bp8[4:5]/5bp4[4:5],
{8},,,,,,,,1qq8[4:5]/5qq4[4:5],
1/5,,,,,,,,,,,,,,,8V27v5[2:3]/4V63v1b[2:3],
4/8,,,,,,,,,,,,,,,6/2,
4z8[8:9]/8z4[8:9],,,,,,,,,,,,,,,{4}2,
{8}4,B2,,5,{4}E1,
{8}4,B2,,5,{2}E1h[4:1],
{4}7,{8}5,B7,,4,{4}E1,
{8}5,B7,,4,{2}E1h[4:1],
{8}2/5,2,8,{16}6,5,6,5,{8}6,{4}4h[8:1],
{8}7/4,7,1,{16}3,4,3,4,{8}3,{4}5h[8:1],
{8}2,6,4,7,3,5,{16}1,8,1,8,
{4}1s5b[4:1],5-3-6[4:1]*V74[4:1],,A5f,
{16}3V15[4:1],,,4,{8}3,6<1[8:1],7,4,{4}2h[4:1],
{8}8-3[8:1],3V51[4:1]*-6-8[4:1],{4}8,{16},,,,2,3,4,5,
6V84[4:1],,,5,{8}6,3>8[8:1],2,5,{4}7h[4:1],
{16}6V41[4:1],,,8,{8}1V73[4:1]*V74b[4:1],7,{16},,,,,,,,1/6-1[8:1],
,,2,{8}6,3V17[4:1],4,3,{4}5v2V47[8:3],
{8}5,8,{4}1h[4:1],{8}8,2/7,{4}3/6>8[4:3],
{8}2,1,8,7,6,5,{4}4h[4:1],
{16}1-5[8:1],,,6,{8}1,8,{16}8/4V61[4:1],3/7,{8}6/2-5[8:1],{16},,,,Cf,
,,8x,{8}4x<7b[8:1],6,{16}1V73[4:1],2,{8}3,{16},,,,6-2[8:1],
,,4,{8}6,4,{16}5x/1x-5b[8:1],8x/4x,7/3x,6x/2x,{4}5x/1x,
{2}E4fh[4:1]/E8fh[4:1],{16}2-5[16:1],,,6x-1[16:1],,,{8}3x,
{16}7x-4[16:1],,,3x-8[16:1],,,{8}6x,{2}6bq7b[4:1],
{16}1x,,,7,{8}1-6<8-4[8:3],2,{16}4/1,3,{8}2,{4}Cf,
{16}2-6[8:1],,,4,{8}2,8-3V52[8:3],7,8,{4}6h[4:1],
{16},,7,3,{8}5,5,{16}2,6,{8}4,4,3/5,
{16}2/6,7,8,1,2,3,4,5,6/2,1,8,7,6,5,4,3,
2/8h[8:1],,,2/4h[8:1],,,{8}2/6h[8:1],{16},2/8h[8:1],,,{4}2/6,
{16}7/1h[8:1],,,7/5h[8:1],,,{8}7/3h[8:1],{16},7/1h[8:1],,,{8}8/2,2/8,
{16}7-3[16:1],,,2-5[16:1],,,{8}6-1[16:1],{16},3V17[16:3],,,{4}7V53b[16:3],
{8},,,1/5,{24}2,3,4,8,7,6,1,2,3,7,6,5,
{16}4h[16:3],,,2h[16:3],,,{8}8h[16:3],{16},6h[16:3],,,{4}7,
{16}2-6[16:1],,,7-4[16:1],,,{8}3-8[16:1],{16},6V82[16:3],,,{4}2V46b[16:3],
{8},,,2-6[16:1],{16},7-3[16:1],,,,,,,4bx,
5,2bx,1,4bx,5,8bx,7,{24}5x/1x>5[8:1],6/2>6b[8:1],7/3<7[8:1],8/4<8b[8:1],,,A2,A3,A4,A5,A6,A7,
{1}A8f,
E
