&title=金色のマーチ
&artist=下地紫野
&first=0.18
&des=最强先锋
&lv_5=13+
&des_5=最强先锋
&inote_5=(122)
{16}3,4,2,,56,,7-2[8:1],,,,2,,,,3v6[8:1],,,,6,,,,
7-2[8:1],,7,,3,,,,3v6[8:1],,,,37,,7,,
6pp6[4:1],,5,,6,,3,,5pp5[4:1],,4,,5,,2,,
4pp4[4:1],,3,,2,,1,,8h[8:1],,6,5,7,,34,,
2b/Cf,,,3,4,,2,,6-8[8:1],,2,2,6,,5,,6-8[8:1],,3,,6,,5,,3,,E6/E5,,E2/B1,,3,4,
2-8[8:1],,7,7,2,,5,,2-8[8:1],,6,6,2,,5,,2>4[8:1],,7,,2<7[8:1]/7<4[8:1],,,,2b,,,,
35,,,,4,,6,5,6-1[8:1],,7,,4,,3,,2h[4:1],,,,4,,3,4,3-5[8:1],,6,,3-1[8:1],,7,,
3/8h[4:1],,,,6,,57,,4pp5[4:1],,3,,2<4[4:1],,,,,,,,
8b-6[8:1]*-5[8:1],,,,8b>3[8:1],,,,2/8b,,4,4,6,,
17,,2-5[8:1],,8,,2,,,,6p3[4:1],,7,,61,,
,,8-3[8:1],,4,,8,,,,1>5[8:1]*<5[8:1],,,,1b,,
,,4,,6,,3,,5,,2>5[8:1]/5<8[8:1],,,,,,,,
5b-1-7[16:3],,6,,5b-1-3[16:3],,4,,5b,,6,6,4,,
35,,2,,4,,2-4[8:1]/4-1[8:1],,,,,,,,8,,8,,4,,4,,5-8[8:1]/7-5[8:1],,,,,,,,
16,,,,2,,6,,2-4[8:1]/5-2[8:1],,,,,,,,1,,8,,7-5[8:1],,7,,4-7[8:1],,3,,
2h[4:1],,,,8h[4:1],,,,4,,5,,4q7[8:3],,3,,2,,,,,,4,,3,,4,,5p2[8:3],,6,,8b<5[8:1],,
,,,,,,1,7,,7,2,,2,5,4,6,,6,3,,36,,3x/4x,,,4x/5x,,,6x/5x,,6,5,6,4,7,3,6,2,
4b<7[8:1],,2,,1>4[8:1],,8,,7p4[4:1],,,,47,,,,3-1[8:1],,2,,3/4-8[8:1],,6,,34,,1,,
7,8,6,4,5b<7[8:1],,2,2,5,,1-4[8:1],,3>8[8:1],,1x,,3x,,5,5,1b>4[8:1],,2,,
5b-2[8:1],,6,,8b,,7,1,6,,34,,
3pp3[16:3],,6,,3,,7,7,2pp2[16:3],,5,,2,,6,6,
1>4[8:1],,,,1-7[8:1]/6-2[8:1],,,,6b,,,,3,4,3,,
5b/7,,4,,8-6[8:1],,3-1[8:1],,8-4[8:1],,3,,8,,2,,
1b>4[8:1],,7,7,1b-7[8:1]*-6[8:1],,,,1b,,,,5h[8:1],,,,
7b,,,6,5,,7,,3-1[8:1],,6,6,3,,4,,3-1[8:1],,6,,3,,4,,6,,E4/E5,,E8/B8,,6,5,
7-1[8:1],,2,2,7,,4,,7-1[8:1],,3,3,7,,4,,7<5[8:1],,2,,7>2[8:1]/2>5[8:1],,,,7b,,,,
64,,,,5,,3,4,3-8[8:1]*<4-8[8:1],,2,,,,,,7h[4:1],,,,5,,6,5,7pp3[4:1],,3,,7,,,,
1h[4:1],,,,3,,42,,5-2-4[4:1],,6,,7>5[4:1],,,,,,,,
E6f/B6/A6,,,,B5/B4/E5f,,,,E4f/B3/A3,,5,5,3,,
82,,7-5[8:1],,2-8[8:1],2,,,,,4-6[8:1],,8V25[4:1],,4,,
,,7,,7,,5-2[8:1],,,,7q3[8:1]*>2[8:1],,,,7,,
,,5,,3,3,6,,4,,7<4[8:1]/4>1[8:1],,,,,,,,
4bV63[16:3],,3,,1bV38[16:3],,2,,4b,,,,5,,
64,,8,2,,2,7,,7,4,5,3,,3,6,,73,,6x/5x,,,5x/4x,,,3x/4x,,3,4,3,5,2,6,3,7,
5b>2[8:1],,7,,8<5[8:1],,1,,2q5[4:1],,,,52,,,,6-8[8:1],,7,,6/5-1[8:1],,3,,65,,8,,
2,1,3,5,4b>2[8:1],,7,7,4,,8-5[8:1],,6<1[8:1],,8x,,6x,,4,4,8b<5[8:1],,7,,
2v3[8:1]/8v7[8:1],,,,2b/8b,,,,3,,65,,
6qq6[16:3],,3,,6,,2,2,7qq7[16:3],,4,,7,,3,3,
8<5[8:1],,,,8-2[8:1]/3-7[8:1],,,,3b,,,,6,5,6,,
4b/2,,5,,1-3[8:1],,6-8[8:1],,1-5[8:1],,6,,1,,7,,
8b>6[2:1],,,,3bx,,,,6bx<4[2:1],,,,1bx,,,,4bx<2[2:1],,,,8bx,,,,2bx<5[4:1],,,,3b,,,,
4-1[8:1],,,,6,,,8,8-5[8:1],,5,,3,
,,,3-6[8:1],,5,,6,,,,6-3[8:1],,4,,2,,,,7-5[16:1],,,,4-1[8:1],,,5,4,,6,,8,,
,,1<6[8:1]/2p6[8:1],,3,,1-4[8:1]/2,,,,5b,,6,,6,,,,7-4[8:1],,,,3,,,2,2-6[8:1],,6,,7,,
,,8>3[8:1],,2,,4,,,4,4<7[8:1],,5,,2,,,,1pp1[4:1],,,,17,,,6,6qq6[4:1],,,,,,,,
8-5[8:1],,1,,2,,3,,3bp7[8:1]*>8[8:1],,,,,,,,
4b<7[8:1]/E3f,,2,,1>4[8:1],,8,,6p4[4:1]/1<6[8:1],,,,
61,,,,3-8[8:1],,2,,3/4-7[8:1],,6,,34,,1,,
7,1,6,3,5b<7[8:1],,2,2,5,,1-5[8:1],,3>8[8:1],,1x,,3x,,6,6,1b>4[8:1],,2,,
7v6[8:1]/1v2[8:1],,,,7b/1b,,,,6b,,4b,,
3pp3[16:3]/E7f,,6,,3,,7,7,2pp2[16:3],,5,,2,,6,6,
1>4[8:1]/5<8[8:1],,,,1-6[8:1]/5-2[8:1],,,,5b,,,,1,6,4,,
5b/8,,4,,8-6[8:1],,3-1[8:1],,8-4[8:1],,3,,8,,2,,1>4[8:1],,2x,7x,1b<6[8:1],,8x,3x,1b,,
5-1[16:1]b,,5b,,,,
6V85[4:1],,18,,5-1[8:1]/6,,2,,4b,,2,,3,,
4,4,1V38[4:1],,34,,1/8-4[8:1],,5,,7b,,5,,6,5,7,,2b/8b,,
3-7[8:1],4,2pp6[4:1],,3,,2b,,8b,,7b-1[8:1],,5,5,7b-4[8:1],,,,
3b<6[8:1]/7b>2[8:1],,,,7b/3b,,,,3,,5/6,,
{16}3V14[4:1],,81,,4-8[8:1]/3,,7,,5b,,7,,6,,
5,5,8V61[4:1],,65,,8/1-5[8:1],,4,,2b,,4,,3,4,2,,7b/1b,,6,6,
2-6[8:1],,5,,6-2[8:1],,8,,2,,8,,
1b-3[12:1],,3/4-1[12:1],,18,,5,,8b-6[12:1],,6/5-8[12:1],,81,,4,,
1b-4[12:1],,3/5-1[12:1],,18,,6,,8b-5[12:1],,6/4-8[12:1],,81,,3,,
2b-4[8:1],,4,,1b-5[8:1],,5,,8b-6[8:1],,6,,
1b-3[8:1],,3,,8x-4[8:1],,4,,7x-5[8:1],,5,,,,,,1>4[8:1]/8<5[8:1],,,,
E1f/D1/A1/A8,,,3,4,,2,,6-1[8:1],,2,2,6,,5,,6-1[8:1],,3,,6,,5,,3,,E6/E5,,E2/B1,,3,4,
3>8[8:1],,7,7,3,,5,,3>8[8:1],,6,6,3,,5,,
2>4[8:1],,7,,2-6[8:1],,7-1[8:1],,2b-4[8:1],,7b,,2b,,5,,
E1f/D1/A8/A1,,,6,5,,7,,3-8[8:1],,7,7,3,,4,,3-8[8:1],,6,,3,,4,,6,,E4/E5,,E8/B8,,6,5,
6<1[8:1],,2,2,6,,4,,6<1[8:1],,3,3,6,,4,,
7<5[8:1],,2,2,7,,1,,7bV15-3[4:3],,2b,,4b,
&lv_6=13+
&des_6=看不懂日文不搞歌词押了,随便画个旗子吧,桃金娘好可爱有没有懂的
&inote_6=(122)
{16},,5q2[8:1]/3,,2,,
4p7[8:1],,,,
6<1[8:1],,,,
3>8[8:1],,,,
{16}5q2[8:1],,,,
4p7[8:1],,,,
6<1[8:1],,,,
4,,3,,
{16}4-8[8:1],,,,
5-1[8:1],,,,
3-8[8:1],,,,
6-1[8:1],,,,
{16}4-8[8:1],,,,
5-1[8:1],,,,
4,,,,
8,1,8,1,
{16}8,,62,,
3b>8[8:1]/5,,7,,
5,,5,,
6<1[8:1]/2,,4,,
{16}3,,3,,
2-4[8:1],,2,,
5-1[8:1],,5,,
2,,3,,
{16}4,,,,
7<4[8:1]/3,,1,,
2,,2,,
2>5[8:1]/6,,8,,
{16}7,,7,,
4-8[8:1],,4,,
7-5[8:1],,7,,
8,,1,,
{16}2,,,,
4,,3,,
2<7[4:1]/4,,5h[8:3],,
,,,,
{16},,,,
5,,6,,
7>2[8:2]/5,,4h[8:3],,
,,,,
{16},,,,
,,1,,
1>5[8:2],,8,,
7h[8:3],,,,
{16},,,,
4b-8[8:1],,,,
4/7b-5[8:1],,,,
7b/8b-4b[8:1],,,,
{16},,,,
5xh[4:2]/3x,,E5,,
E4,,E3,,
E2h[4:1],,,,
{16}C,,,,
6x/4xh[4:2],,E5,,
E6,,E7,,
E8h[4:1],,,,
{16}C,,,,
2-8[8:1],,2,,
6-4[8:1],,6,,
1h[4:1],,,,
{16}5,,,,
8b-6[8:1]/1b-5[8:1],,,,
8b-4[8:1]/1b-3[8:1],,,,
8b/1b,,,,
{16},,,,
7,,7h[8:3],,
1,,3,,
3h[8:2],,,,
{16}6,,2/5h[8:5],,
B6,,B5,,
B4,,B3,,
Ch[4:1],,,,
{16},,,,
2,,2h[8:3],,
8,,6,,
6h[4:1],,,,
{16}3,,7/4h[8:5],,
B3,,B4,,
B5,,B6,,
Ch[4:1],,,,
{16},,,,
6,,6h[8:3],,
7,,5<3[8:3],,
4h[8:5],,,,
{16},,,,
,,5,,
6pp4b[8:3],,7h[8:5],,
,,,,
{16},,,,
4h[8:1],,,,
6h[8:1]/5h[8:1],,,,
4h[8:1]/2h[8:1],,,,
{16}7h[8:1]/8h[8:1],,,,
E1/B1/E2/A1,,,D7/A6/E7/E6/B6,
,,B3/E4/E3/A3,,
8,1,8,1,
{16}8-4b[8:1],,62,,
8b/1`Cf,,,,
3>7[8:1],,,,
3h[4:1],,,,
{16}5-1[8:1],,,,
3<6[8:1]/5,,,,
3/7-2[8:1],,,,
7/1w5[8:1],,,,
{16},,,,
6x-1[8:1]/4x,,3-7[8:1],,
6,,3,,
8<4[8:1],,,,
{16}81,,,,
2-4[8:1],,,,
1-5[8:1],,,,
3-8[8:1],,1,,
{16}5-1b[8:1],,4,,
5b/2`Cf,,,,
8>4[8:1],,,,
8h[4:1],,,,
{16}2-5[8:1],,,,
2/6>3[8:1],,,,
6/2-7[8:1],,,,
5w1[8:1]/2,,,,
{16},,,,
8h[4:1],,4,,
2,,1h[4:1],,
4x,,3x,,
{16}7h[4:1],,5,,
3h[4:1],,2,,
5h[4:1],,1,,
4,,3,,
{16}52,,7,8,
6b<2[8:1],,2,,
4,,4,,
3>7[8:1],,7,,
{16}5,,5,,
6-4[8:1],,3,,
2-5[8:1],,1,,
6-2[8:1],,7,,
{16}64,,,,
4>8[8:1],,8,,
6,,6,,
5<1[8:1],,1,,
{16}3,,3,,
2-5[8:1],,1,,
6-4[8:1],,7,,
6/3-7[8:1],,2,,
{16}5xh[4:1]/3x,,,,
1h[4:2],,E5,,
E6,,E7,,
E8h[4:1],,,,
{16}C,,,,
8xh[4:2],,E5,,
E4,,E3,,
E2h[4:1],,,,
{16}C,,,,
7h[4:2],,E6,,
E5,,E4,,
4xh[4:1],,3,,
{16}5xh[4:1],,6,,
2b-8[8:1],,,,
7b-3[8:1],,,,
7b/4-8b[8:1],,,,
{16},,,,
7xh[4:1]/1x,,5,,
5,,4h[4:1],,
6,,7h[4:1],,
{16}5,,,,
8x/2xh[4:1],,,,
4,,4,,
5h[4:1],,3,,
{16}2h[4:1],,4,,
7h[4:1],,5x,,
3,,1h[4:2],,
4,,2x,,
{16}8,,7,,
7bx-5[8:1]/8bx-4[8:1],,,,
7b-3[8:1]/8b-2[8:1],,,,
7b/8b,,,,
{16}4x/5xh[4:4],,,,
6h[8:1],,,,
7h[8:1],,,,
8h[8:1],,,,
{16}1h[8:1],,,,
6x/2xh[8:3],,,E5/E4/B4/A4,
,,A7/E8/E7/B7,,
,,8,1,
{16}8-4b[8:1],,26,,
8b/3`Cf,,,,
5x/2x<6[8:1],,,,
3h[4:1],,,,
{16}4-1[8:1],,,,
4/7-3[8:1],,,,
7/1>4[8:1],,,,
1/8w4[8:1],,,,
{16}8,,,,
6x-2[8:1]/2x,,7,,
3-8[8:1],,4,,
5-1[8:1],,,,
{16}51,,,,
2-6[8:1],,4,,
2x/3x>5[8:2],,,,
53,,,,
{16}4-8b[8:1],,3,,
2-5[8:1]/4b`Cf,,,,
7-3[8:1]/2,,,,
7/4-1[8:1],,,,
{16}6>3[8:1]/4,,,,
1p5[8:1]/6,,,,
1/3>5[8:2],,,,
35,,,,
{16}4-8[8:1],,,,
4/2-7[8:1],,3,,
8,,6,,
5-1[8:1],,2-5[8:1],,
{16}5,,2,,
8<8[4:2],,,,
C,,,,
8<8[4:2],,,,
{16}C,,,,
8<8b[4:2],,,,
C,,,,
8<8b[4:2],,,,
{16}C,,,,
8<5p4[4:2],,,,
,,,,
,,,,
{16},,,,
52,,3,4,
3,,52,,
6,5,6,,
{16}7-3[8:1]/4,,8,,
2-5[8:1],,,,
6,,7,,
7,5,6,,
{16}4/3h[4:3],,,,
2,,4,,
1,,5,,
7-3[8:1],,,,
{16}37,,,,
5<8[8:1]/1>4[8:1],,,,
51,,,,
8-3[8:1],4,6,,
{16}82,,,,
1h[4:1],,3,,
4h[4:1],,2,,
3h[4:1],,5,,
{16}6h[4:1],,4,,
5-1[8:1]*-2[8:1],,,,
5,,,,
8-3[8:1],1,7,,
{16}8/2V84[4:2]*v4[4:2],,,,
,,,,
,,,,
,,3,5,
{16}4-8b[8:1],,26,,
4b/3`Cf,,,,
3<7[8:1],,,,
1h[4:1],,,,
{16}8-3[8:1],,,,
8-5[8:1],,7,,
8-3[8:1],,1,,
5w1[8:1]/8,,,,
{16}5,,,,
8bx/2bx<7[8:1],,,,
5<3b[4:1],,4,,
4h[4:1],,,,
{16},,6,5,
7-4[8:1],,4,,
7-1[8:1],,2v3-5b[4:1],,
7,,,,
{16}7-3b[8:1],,8,,
7b/4>1[8:1]`Cf,,5,,
4<7[8:1],,8,,
4w8[8:1],,1,,
{16}4,,,,
1-6[8:1],,8,,
1-4[8:1],,2,,
1/5w1[8:1],,,,
{16}5,,,,
8bx/2bx-6[8:1],,7,,
6-2[8:1],,8,,
4-8[8:1]/6x,,3,,
{16}4x<3[4:1],,1,,
4bx>5b[4:1],,,,
,,,,
1bx-4[8:1],,,,
{24}E6,B6,B7,E8,,,
{16}7bx-3[8:1],,6,,
7/2-5[8:1],,1-6[8:1],,
2<7[8:1],,1,,
{16}2,,,,
4-8[8:1],,8,,
4,,2-5[8:1],,
3>8[8:1],,2x,,
{16}3x,,,,
4bx-1[8:1],,2,,
6>1[4:1]/4,,7,,
8h[8:2],,,,
{16},,8,,
7-5[8:1]/1,,4,,
4-8[8:1],,2v3-5b[4:1],,
1,,,,
{16}6-2b[8:1],,7,,
6b/5`Cf,,4,,
1-5[8:1]/3,,7-4[8:1],,
1-3[8:1],,7,,
{16}1,,,,
6/4-8[8:1],,7-4[8:1],,
4>6[4:1],,7,,
8xv1-3b[4:1],,8x,,
{16}8x-4b[8:1],,,,
8b`Cf,,,,
1-5[8:1],,2-4[8:1],,
1-7[8:1],,2-6[8:1],,
{16}1,,2,,
7x,,7/E5,,
7,,7/E1,,
2x,,2/E5,,
{16}2,,E1/2,,
7x,,78,,
7,,78,,
2x,,21,,
{16}2,,12,,
7,,65,,
2,,43,,
8,,65,,
{16}1,,43,,
78,,65,,
12,,34,,
7h[4:2]/3h[4:1],,,,
{16},,,,
{48}A3f,D7/D3,A6/A2,D6/D2,A5/A1,D1/D5,A8/A4,,,,,,
{16},,,,
64,,7,5,
{16}6-1[8:1],,75,,
4-7[8:1],,4,,
2-5[8:1],,2,,
8>3[8:1],,7,,
{16}6/8x,,,,
53,,2,4,
3,,24,,
3-8[8:1],,3,,
{16}5-2[8:1],,5,,
8-4[8:1],,7-5[8:1],,
8,,7,,
2>5[8:1],,1,,
{16}2/6-2b[8:1],,,,
6b/5-8[8:1]`Cf,,4,,
3-5[8:1],,2,,
7-3[8:1],,6,,
{16}7/1-5[8:1],,2-4[8:1],,
1-7[8:1],,2-6[8:1],,
1,,2,,
8>3[8:1],,7,,
{16}86,,,,
5-3[8:1],,6,,
7-4[8:1],,1,,
7/2-5[8:1],,3-8[8:1],,
{16}2x,,3x,,
7x,,61,,
2x,,84,,
7pp4b[4:1]/3,,5,,
{16}C,
