&title=水たまり飛び越えて
&artist=*なみりん、ななひら
&first=0
&des=Mr_HaoZi
&lv_5=13
&inote_5=(194)
{1},,
{4},,,{16},E7,B7,B8,
{8}1x^4[8:1],,,,1x^6[8:1],,,1,
{4}1-6[8:1],1,1-4[8:1],1,
{8}8x^5[8:1],,,,8x^3[8:1],,,8,
{4}8-3[8:1],8,8-5[8:1],8,
{8}1x^4[8:1]/8x^5[8:1],,,,1x/8x,,,18,
{4}1-3[8:1]/8-6[8:1],1-5[8:1]/8-4[8:1],1-3[8:1]/8-6[8:1],18,
{8}2x,3x,4x,48,7x,6x,26,3x,
{8}3x,48,7x,6x,26,,15,,
{8}4h[8:9]/8h[2:1],,,,,,1,1h[2:1],
{4},B4,C,B8,
{8}4h[8:9]/8h[2:1],,,,,,7,7h[2:1],
{4},B4,C,B8,
{8}6h[8:7]/8h[2:1],,,,,,,1,
{4}1h[1:1],5,5h[4:1],,
{8},,E7,2h[8:3],,,,8h[8:3],
{8},,,3h[8:2],,,C,,
{8}6h[2:1],,,,4h[8:5],,,7,7h[2:1],
{8},B4,,C,,B8,,
{4}8h[4:3],E7,6h[4:3],,
{2}2h[4:3],5h[1:1],
{1}1b,
{2}7h[2:1]b,4h[2:1],
{8}8h[1:2],,,,,,2x-5[8:1],2x,
{8},,4x-7[8:1],4x,,,6x,,
{16}B6,C,B2,,,,,,{2}2<4[2:1],
{1},
{2}1>5[2:1],5^8[2:1],
{2}8s4[2:1],4<1[2:1],
{4}1x>5[4:1],5x<1[4:1],1x>5[4:1],5x<1[4:1],
{1}1x>7[2:1],
{4},7pp4[2:1],1h[4:1],,
{8}3h[4:2],,6,6,,,8b,,
{8}2x-5[8:1],1,2,7,7x-4[8:1],8,7,8,
{8}2x-5[8:1],1,2,7,7x-4[8:1],,7,,
{8}5b,,2^5-1[2:1],,5x-8^6-2[2:1],,,,
{8},,,,,4x,4x,,
{8}E6,,E4,,,E7/B6/E3/B3,,E8/B7/B2/E2,
{4},8x-4[8:1],8,,
{8}2,1,2-6[8:1],4,2b,,7,8,
{8}7-3[8:1],5,7b,,4,Ch[8:7],,,
{4}3h[1:2],,,8h[4:5]b,
{1},
{4},6h[4:1]x,{32}1x,2x,3x,4x,5x,6x,7x,8x,{4}1x/B5f,
{8}1q6[8:3],,,6>1[2:1],,7,7,,
{8}8p3[8:3],,3,3<8[2:1],,,2,,
{8}1q6[8:3],,6,6>1[2:1],,7,7,,
{8}8p3[8:3],,3,3<8[2:1],,2,,,
{8}1,,5,1^4[8:1],,1,5,,
{8}8,,4,8^5[8:1],,8,4,,
{8}15,2x,3x,48,7x,6x,15,2x,
{8}3x,48,7x,6x,{16}15,2x/6x,3x/7x,4x/8x,{4}1bx-6[8:1]/5bx-2[8:1],
{8}1b/5b,,,1-4[8:1],,6,7x,8,
{8}1^6[8:1],,4,3-7>3[2:1],,,4^7[8:1],,
{8}4bx,,,8-5[8:1],,3,2x,1,
{8}8^3[8:1],,5,6z2[4:1],,,8x-4[8:1],,
{2}8>4[2:1],4<8[2:1],
{2}8>4[2:1],4<8[2:1],
{8}8>4-1[4:3],,,,,6,7,8h[4:1],
{8},,2,2,6,6,1,,
{8}8^5[8:1],,,4^1[8:1],,,{16}E8,B7,B6,E6,
{8}1^4[8:1],,,5^8[8:1],,1x,{16}E2,B2,B3,E4,
{8}8^5[8:1],,,4^1[8:1],,,{16}E8,B7,B6,E6,
{8}2,3,7,8>5[8:3],{2},
{8}2-6[8:1],,,8-4[8:1],,,1-3[8:1],,
{8}7-3[8:1],,,1-5[8:1],,,8-6[8:1],,
{1}1<3[2:1],
{8}8,7,2,3,7,6,3,,
{4}6<2[4:1],4,3V17[4:1],5,
{4}6V82[4:1],4,3>7[4:1],5,
{4}6z2[4:1],2,1-5[8:1],5,
{4}6z2[4:1],2,1-5[8:1],5,
{8}7,7,2,2,6,6,3,3,
{8}5,5,2,2,7,7,1,1,
{16}8,2,8,2,3,7,3,7,4,6,4,6,5,5,5,5-1[2:1],
{1},
{8}7,,,7,,,3,,
{8},3,,,1,,1b,,
{8}6,6,1,1>5p3[1:1],,1x,,,
{8}7,7,8,8<4q6[1:1],,8x,,,
{8}2,2,1,1>5p3[1:1],,1x,,,
{8}7,7,8,8<4p6[2:1],,8x,,,
{8}2,2,5x,1pp1[4:1]*qq1[4:1],{4},,
{8},5x,2-4[8:1],,2-7[8:1],,2,,
{16}2x/8b,3x,4x,,,,1b/7x,6x,5x,,,,2x/8b,3x,4x,,
{16},,1b/7x,6x,5x,,,,{4}2^4[8:1]/8^6[8:1],28,
{4}2q6[4:1]/6,7,8q4[8:1],8,
{4}2q6[4:1]/6,7,8q4[8:1],8,
{4}2>6[4:1],6<2[4:1],2>6[4:1],6,
{4}7<3[4:1],3>7[4:1],7<3[4:1],3,
{4}2q6[4:1],7,8q4[8:1],8,
{4}2q6[4:1],7,8q4[8:1],8,
{4}2>6[4:1],6<2[4:1],2>6[4:1],6,
{4}7<3[4:1],3>7[4:1],7<3[4:1],3,
{4}1x-5[8:1],6x<5[1:7],,,
{1}B5/B4/E5,B5/B6/E6,E6/E7/B6,B7/E7/E8,
{4}B7/E8/B8,,,B8/B1/E1,
{1}B8/E1/E8,
{1},
{4}8xz4[1:1],2,2,3,
{4}4x<8[1:1],3,2,1,
{4}8x-5-2[1:1],1,2,3,
{4}2xV84[1:1],3,4,3,
{4}4xV61[1:1],,3,,
{2}1x-5[2:1],5x-2[2:1],
{8}2x<5[2:1]b,,,,,2,2,2h[32:27]b,
{8},5,6,6,7,7,{32}1x,8x,7x,6x,5x,4x,3x,2x,
{8}1x-5[8:3],,,5^2[8:3],,6,6,,
{8}8x-4[8:3],,,4^7[8:3],,3,3,,
{8}1x-5[8:3],,,5^2[8:3],,6,6,,
{8}8x-4[8:3],,4,4^7[8:3],,,,,
{8}2-4[8:1],,,8-6[8:1],,,1-5[8:1],,
{8}7-5[8:1],,,1-3[8:1],,,8-4[8:1],,
{1}2<4[2:1],
{8}6x,,4,28,7,35,27,,
{4}2V46[4:1]/6,7,8-4[8:1],8,
{4}2V46[4:1]/6,7,8-4[8:1],8,
{4}7V53[4:1]/3,2,1-5[8:1],1,
{4}7V53[4:1]/3,2,1-5[8:1],1,
{16}3x,6,3x,,3x,6,3x,,3x,7,3x,,3x,7,3x,,
{16}3x,8,3x,,3x,8,3x,,3x,1,3x,,3x,1,3x,,
{16}3x,8,3x,,3x,8,3x,,{32}3x,2x,1x,8x,7x,6x,5x,4x,3x,2x,1x,8x,7x,6x,5x,4x,
{4}3x/C,,,E1f,
{4}7-2[8:1],27,2-7[8:1],27,
{4}7-5[8:1]/1,47,2-4[8:1]/8,25,
{4}2-7[8:1],27,7-2[8:1],27,
{4}2-4[8:1]/8,25,7-5[8:1]/1,47,
{8}1^3[8:1],5,1^7[8:1],5,1^3[8:1],5,1^7[8:1],5,
{8}1^3[8:1],5,1^7[8:1],5,1^3[8:1],5,1,,
{16}1b,2,3,4,5,6,8b,7,6,5,4,3,1b,8,7,6,
{16}5,4,3,7b,6,5,4,8b,1,2,3,4,2b,3,4,5,
{1}2h[1:1],
E
