&title=Babaroque
&artist=cYsmix
&first=0
&des=albertoBradish
&lv_5=13+
&des_5=albertoBradish
&inote_5=(136)
{16},,,,
,,,,
,,,,
,,,,
{16},,,,
,,,,
4x<6[8:1]*>2[8:1],4x,4x,,
4-8[8:1],,,,
{16}4bpp7[8:9]/2qq7[8:9],,,,
,,,,
,,,,
,,,,
{16},,,,
,,,,
E1,E2,E3,A3,
E8,E7,E6,A5,
{16}4x>2[4:1],,,,
2<8[4:1],,,,
8<6[4:1],,,,
5,,,,
{16}4x-7[8:1],,4x,,
B8/B1,,,,
2-6[8:1],,,,
2/7-1b[8:1],,,,
{16}5x/7bV14-6-2[8:9],,,,
,,,,
,,,,
,,,,
{16},,,,
,,,,
E1,E8,E7,A6,
E2,E3,E4,A4,
{16}5x<7[4:1],,,,
7>1[4:1],,,,
1>3[4:1],,,,
3<5[4:1],,,,
{16}5<7[4:1],,,,
1,,,,
E3,E4,E5,E6,
E2,E1,E8,E7,
{16}4<7[8:1],,,,
3/4bpp2[8:7],,,,
,,,,
,,,,
{16},,,,
,,,,
E1,E8,E7,E6,
E3,E4,E5,E6,
{16}8<5[4:1],,,,
5>2[4:1],,,,
2<7[4:1],,,,
7<4[4:1],,,,
{16}4>1[4:1],,,,
1,,,,
5x,4x,3x,2x,
1x/8x,7x,6x,5x,
{16}4/3bh[4:1],,,,
4,,3,,
4<6[8:1],3,,3,
4,,,,
{16}5/6h[4:1],,,,
5,,6,,
5>3[8:1],6,,6,
5,,,,
{16}4/3h[4:1],,,,
4,,3,5,
,3,5,3,
5,,4,,
{16}5x/6h[4:1],,,,
5,,6,4,
,6,4,6,
4,,5,5,
{16}3x/4x,,2,,
5/4,,7,,
3/5,,2,,
5/6,,7,,
{16}2x/4x,,1,,
7/5,,8,,
3/4,,1,,
6/5,,8,,
{16}1b-6[8:1],,2,,
1x/3b-8[8:1],,4,,
3x/5b-2[8:1],,6,,
5x/7b,,8,,
{16}8,1,8,1,
8,1,8,1,
{32}8x,7,6,5,1x,2,3,4,
{16}8x/5x-1[4:15],,,,
{16}5bxh[4:7],,,,
,,,,
,,,,
,,,,
{16},,,,
,,,,
,,,,
,,,,
{16}7h[4:1],,,,
,,,,
2h[4:1],,,,
,,,,
{16}8h[4:3],,,,
,,,,
,,,,
,,,,
{16}1x/7x<4[8:1],,,1,
,,1,,
2,2,,5/3,
,,4/6,,
{16}8/2>5[8:1],,,8,
,,8,,
7,7,,4/6,
,,5,4,
{16}6x,6,5,5,
7x,7,4,4,
8x,8,2,2,
{32}4x,5,6,7,1x,2,3,4,
{16}8xp3[8:3],5xq2[16:5],8x,5x,
,,,,
,,,,
{32}1x/4x,8x/5x,7x/6x,,,,,,
{16}1b/6h[16:3],,,5,
4-7[8:1],,3,,
4/2,,,8,
2>5[8:1],,3,,
{16}8-4[8:1],,,7,
8,,5,,
5V73[16:3],,,4,
5,,4,,
{16}5-2[8:1],,,1,
5,,8,,
6-1[8:1],,,2,
6,,3,,
{16}5>2[8:1],,,1,
5,,8,,
6<1[8:1],,,2,
6,,3,,
{16}4-8[8:1],,,3,
4/2,,2,,
5-1[8:1],,,6,
5/7,,7,,
{16}8-4[8:1],,,5,
8/5,,3,,
1-5[8:1],,,4,
1/4,,6,,
{16}7,,6,5,
7/4,,3,4,
2/5,,7/4,4/7,
,6/5,5/6,,
{16}2>5[8:1],,,4,
2-6[8:1],,6,,
2/8w4[8:1],,,,
8x,,,,
{16}6b,5,7,2h[16:3],
,,5,2,
4,1h[16:3],,,
3,1,4,8h[16:3],
{16},,4,5/1,
6/2,7/3,8/4,,
8h[8:1],,6,8h[8:1],
,4,8,,
{16}3,4,2,7h[16:3],
,,4,7,
5,8h[16:3],,,
6,8,5,1h[16:3],
{16},,5,4/8,
3/7,2/6,1/5,,
1h[8:1],,3,1h[8:1],
,5,1,,
{16}7,8,6,3h[16:3],
,,8,3,
1,4h[16:3],,,
2,4,1,5h[16:3],
{16},,1,8/4,
7/3,6/2,5/1,,
5h[8:1],,7,5h[8:1],
,1,5,,
{16}2,1,3,6h[16:3],
,,1,6,
8,5h[16:3],,,
7,5,8,4h[16:3],
{16},,8,1/5,
2/6,3/7,4/8,,
4h[8:1],,2,4h[8:1],
,8,4,,
{16}5/6b,4,3,2x>5[8:1],
,,6,7,
8,1x<6[8:1],,,
4,3,2,1x>4[8:1],
{16},,5,6,
7-3[8:1],8x,,,
5/7x-5[8:1],,,4,
7x,,1,,
{16}8/7,1,2,3x>8[8:1],
,,7,6,
5,4x<7[8:1],,,
1,2,3,4x>1[8:1],
{16},,8,7,
6x-2[8:1],5x,,,
8/6x-8[8:1],,,1,
6x,,4,,
{16}2/1,3,4,5>2[8:1],
,,1,8,
7,6<1[8:1],,,
3,4,5,6x>3[8:1],
{16},,2,1,
8-4[8:1],7,,,
2/8-2[8:1],,,3,
8,,4,,
{16}6/5,7,8,1<6[8:1],
,,5,4,
3,2>5[8:1],,,
7,8,1,2x<7[8:1],
{16},,6,5,
4,3,,,
5h[8:1]/1h[8:1],,,6h[8:1]/2h[8:1],
,,3/7,,
{16}8h[1:1],,,,
,,,,
B7,,,,
,,,,
{16}1h[1:1],,,,
,,,,
B2,,,,
,,,,
{16}7h[1:1],,,,
,,,,
E6,,,,
E5,,,,
{16}3h[1:1],,,,
,,,,
,,,,
B4,,,,
{16}5-8[4:3],,,6,
,,6,,
4,4,,5,
,,5x,,
{16}1-4[4:3],,,2,
,,2,,
8,8,,1,
,,1x,,
{16}5x,5,3,3,
7,7,1,1,
{32}7,6,5,4,3,2,1,8,
7/4,3,2,1,8,7,6,5,
{16}4xp7[16:5],1xq6[8:3],4x,1x,
,,,,
,,,,
{32}8x/5x,1x/4x,2x/3x,,,,,,
{16}5-1[8:1]/4-8[8:1],,,,
5/4,,,,
7b-4[8:1],,,8,
7,,1,,
{16}2V46[16:3],,,1,
2,,8,,
7-4[8:1],,,4,
3/7x,2,1,,
{16}3-5[8:1],,5-2[8:1],,
3/7,,1,,
8-6[8:1],,,5,
8-4[8:1],,3,,
{16}8/1,,,,
2>5[8:1],,4,,
2<7[8:1],,8,,
2,,6,5,
{16}3/4-7[8:1],,,3,
4x/2,,3,,
4/1-6[8:1],,,2,
1x/3,,4,,
{16}5-3[8:1],,7,,
5/6-8[8:1],,7,,
1h[16:3],,,,
8,1,7,2,
{16}3/6-1[8:1],,5,,
6/3-8[8:1],,4,,
3/6<1[8:1],,5,5,
6x/3>8[8:1],,4,,
{16}3/5-1[8:1],,,2,
5,,3,,
4w8[8:1],,,,
4b,,,,
{16}5x/6x,4x/7x,3x/8x,1x/2x>5b[8:1],
,,6/2x,7,
8,1<6b[8:1],,,
4/1x,3,2,1>4b[8:1],
{16},,5/1x,6,
7-3[8:1],8,1,,
5/7-5[8:1],,,4,
7/2,,1,,
{16}8x/7x,1x/6x,2x/5x,4x/3x>8[8:1],
,,7/3x,6,
5,4<7[8:1],,,
1/4x,2,3,4>1[8:1],
{16},,8/4x,7,
6-2[8:1],5,4,,
8/6-8[8:1],,,1,
6/3,,4,,
{16}2/1,3/8,4/7,6/5>2b[8:1],
,,1/5x,8,
7,6<1b[8:1],,,
3/6x,4,5,6x>3b[8:1],
{16},,2/6x,1,
8-4[8:1],7,6,,
2/8-2[8:1],,,3,
8,,4,,
{16}6/5,7/4,8/3,2/1<6[8:1],
,,5/1x,4,
3,2>5[8:1],,,
7/2x,8,1,2<7[8:1],
{16},,6/2x,5,
4,3,2,,
1/5,5/1,,2/6,
6/2,,8/4,,
{16}4h[8:1],,8,,
4h[8:1],,7,,
4h[8:1],,6,,
4h[8:1],,5,,
{16}5h[8:1],,1,,
5h[8:1],,2,,
5h[8:1],,3,,
5h[8:1],,4,,
{16}3/5h[8:1],,3,,
6h[8:1],1,,1,
5h[8:1],,,1,
6h[8:1],,3,,
{16}6/4h[8:1],,6,,
3h[8:1],8,,8,
4,3,2,1,
8pp3[1:2]/7pp4[1:2],6,5,4/3,
