&title=The Last Page
&artist=ARForest
&first=0
&lv_5=14
&des_5=n41e4m & P50
&inote_5=
(195){4},{1},,,,,{4},,,3/5,
{8}6,5,,5,{4}4>2[8:1],
4<6[8:1],4,2/6x,{8}3,4,
,4,{4}5-8[8:1],5-2[8:1],5,
2x/8,{8}6,5,,5,{4}6<8[8:1],
6>4[8:1],6,3x/8,{8}4,5,
,5,{4}4-1[8:1],4-7[8:1],4,
8x/1h[4:1],{16}8,7,6,5,{8}4,2/4,{4}1/6xh[4:1],
{16}1,2,3,4,{8}5,7/5,{4}6x/4h[4:1],{16}5,6,7,8,
{8}1,3/1,{4}4/6xh[4:1],{16}4,3,2,1,{8}8,6/8,
{4}5x/E3h[4:1],{16}E1,E8,E7,E6,{8}E5,B2/B3/B7/B6,{4}1x/E7h[4:1],
{16}E1,E2,E3,E4,{8}E5,B7/B6/B2/B3,{4}6x/E4h[4:1],{16}E2,E1,E8,E7,
{8}E6,B3/B4/B8/B7,{4}3x/E8h[4:1],{8},3h[8:1],5h[8:1],4h[8:1],
{4}6bh[4:3],{8}5,5,,7,{24}E8,E1,E2,E3,E4,E5,
{4}8x-4[8:1],3,5/3h[1:1],{8}4,4,
,2,{4}2,{16}1,8,7,6,{4}5/1,
8/7h[1:1],{8}1,1,,6,{4}6,
{24}E6,E5,E4,E3,E2,E1,{4}5x-1[8:1],2h[4:3],{8}8,8,
,3,{4}3b<6[8:1],8b-4[8:1],1b/8b,
{16}5x,6,7,8,1,2,3,4,5,6,7,8,{4}2-6[8:1],
8-4[8:1]/2-4[8:1],8/2,{16}2x,1,8,7,6,5,4,3,
2,1,8,7,{4}5-8[8:1],5/2-5[8:1],2/1,
{16}8x,7,6,5,2x,4,3,4,2x,5,4,5,2x,6,4,5,
3x,7,3,7,2x,6,2,6,1x,8,7,6,5,4,3,2,
5,6,7,8,4x,5,6,7,8,1,2,3,5,4,5,4,
{1}6bh[1:3],
,,{8}E4,
B4,B5,E6,,B3,B2,B1,
B8,B7,B6,D5,A6,A3,,A8,
{4}A1,{8}E7,E6,E4,E3,{4}Ch[4:1],
1>4[4:1],4qq2[4:1],5,6pp6[8:3],
3,3,4>1[4:1],1pp3[4:1],
8,7qq7[8:3],2,2,
1<6[4:1],6>3[4:1],3-8[4:1],8-5[4:1],
5-2[4:1],2-8-6-4[2:1]*<4[2:1],,,,{16}E4,
E3,E2,E1,E8,E7,E6,E5,E4,E3,E2,E1,
{4}6,{8}6,5,{4}6,7-4[4:1],
4<5-2[4:1],3,1,{8}1,8,
{4}1,3-8[4:1],8>1-6[4:1],6,
5,4,3pp6[16:9],7,
8,1,2<5[2:1],4,
3,{16}E3,B2,B1,E1,B8,B7,E7,B6,B5,E5,B4,B3,
{4}5xh[4:9]/E3,{2},{4}6,
{2},4,
{4},3qq8[2:3],{2},{1}7h[4:9],
{2},{48}A8,D1,{24}1xh[24:17],{12},,,,,,,,,,,{16}A6,
E6,E5,A4,A2,E2,E1,A8,
{4}6x,{8}2,2,,5,{4}5,
3qq1[8:1],7,{8}6,5,4,3,
,5,4,3,{4}2pp4[8:1],8,
6x,{8}7,7,,4,{4}4,
6pp8[8:1],2,{8}3,4,5,6,
,4,5,6,{4}7qq5[8:1],3,
2x/7x,{16}6,4,6,4,{8}6,3,{4}7x/2x,
{16}3,5,3,5,{8}3,6,{4}1x/8x,{16}6,5,6,5,
{8}6,4,{4}1x/8x,{16}3,4,3,4,{8}3,5,
{4}7x/8x,{16}8,7,6,5,{8}4,1,{4}2x/8x,
{16}1,2,3,4,{8}5,8,{4}7x/1x,{16}1,2,3,4,
{8}5,7,{4}3/7h[4:1],4h[4:1],6h[4:1],
{2}5>5[4:5],{4}6,6,
5,5qq1[4:3],,,,6h[8:3],
{8},2h[8:3],{4},{8}5h[8:3],
{4},{8}3h[8:3],{4},7-4[4:1],
4-1[4:1],1-5[4:1],5-2[4:1],2-7[4:1],
4,3,2,7,
{8}8/3,4,5,6/1,7,8,1/4,2,
3,4/6,5,6,7/4,8,1,2/5,
3/4,3/4,5/2,5/2,6/1,6/1,8/7,8/7,
{16}7,8,7,6,7,5,7,4,7,3,7,2,7,2,8,2,
1,2,3,2,4,2,5,2,5,6,7,8,1,2,3,4,
5/1,8,7,6,5,4,3,2,{24}1/6,5,4,3,2,1,8/4,3,2,1-4[2.9231##0.1538],8-5b[3.1795##0.1538],7,
{4}6h[128:1],{2},{4}6h[128:1],
{2},6h[128:1],
{4},1b,8b,Cf/E7/E3,
8/1-7-3[4:1],{8}4/1,5,{4}6-1[8:1],6-4b[8:1]/2-4b[8:1],
2/6,7b/1b,4/5-3-7[4:1],{8}8/5,1,
{4}2>5[8:1],1/2<7[8:1],3/2-6b[8:1]*-5b[8:1],2b,
{16}7,8,1,2,3,4,5,6,3,2,1,8,6,5,4,3,
2,1,8,7,1,2,3,4,6,5,6,5,7,4,7,4,
8-4b[8:1],7,6,5,{4}8bw4b[8:1],8b,6bx/2bx,
4/5-3-7[4:1],{8}8/5,1,{4}2-5[8:1],2<8b[8:1]/6<8b[8:1],
6/2,3b/5b,8/1-7-3[4:1],{8}4/1,5,
{4}6<1[8:1],6/5-2[8:1]*-3[8:1],5-7b[8:1]*-8b[8:1],5b,
{8}2-4[8:1],4-8[8:1],2,{16}5,6,{4}7-1-3[4:1],3-1-7[16:3],
5-2[8:1]*-1[8:1],A5f/D5/E6,{8}7-4[8:1],8,7>5[4:1],3,
{4}7,{16}8x,1,2,3,7x,8,1,2,6x,7,8,1,
{4}6/2-6-4[4:1],{8}2/7,8,{4}1-3[8:1],1<7b[8:1]/5<7b[8:1],
1/5,2b/4b,1/5-7-4[4:1],{8}5/1,2,
{4}3-1[8:1]*-8[8:1],3-6[8:1]*-5[8:1],3-7b[8:1],A3,
{16}6x,5,4,3,2,1,8,7,2,3,4,5,6,7,8,1,
7,6,5,4,1,2,3,4,6,5,6,5,7,4,7,4,
8-4b[8:1],7,6,5,{4}8b-6b[8:1],8b-2b[8:1],8b,
{8}7/8,{16}3,4,{8}3,1/2,{16}6,5,{8}6,8/1,{16}4,5,
4,5,3,6,3,6,{8}3,7/5,{16}2,3,{8}2,6/4,
{16}7,8,{8}7,2/4,{16}1,8,1,8,2,1,2,1,{8}2,
{16}6/5,4,3,2,1,8,7,6,5,4,3,2,1/7,6,5,4,
3,2,1,8,7,6,5,4,1/3,8,7,6,5,4,3,2,
{24}1/6,7,8,1,2,3,4,5,6,7,8,1,{32}2/3,4,5,6,7,8,1,2,3/6,7,8,1,2,3,4,5,
{1}6h[2:3],
{2},2-5-1[4:3],
{4},1-4-7[4:3],{2},{4}7-2[2:1],
{2},{4}7<6-3>2-7[1:2],
{2},1-5[4:5],
E
