&title=KIRISAME MAGIC
&artist=DiGiTAL WiNG feat.花たん
&first=0.05
&des=某M氏
&des_5=
&clock_count=4
&lv_5=13
&inote_1=
&inote_5=(150){4},,,,5/3h[8:15],
5,5,5,
4,5,6,{8}7,7,
{4}4/6h[8:15],4,4,4,
5,4,3,{8}2,2,
{4}5b/3h[8:15],4,4,4,
2,1,8,{8}6,6,
4h[8:1],6h[8:1],2h[8:1],8h[8:1],{24}4,5,6,7,8,1,2/6,5,4,3,2,1,
{4}8b-5[8:3]/4bv1[8:3],,,1pp1[8:7],
{1}5bpp5[8:5]*pp5[8:5],
2bp8[8:5]/6bp4[8:5],
{2}6h[4:1]/2-5[8:1],{8}8-4[8:1],3h[8:3],{4}8,
{16}5,3,6,4,{8}7h[2:1],8,{4}1>5[8:1],1b,
{1}6h[4:3]/2bp8[2:1],
2h[4:3]/6bp4[2:1],
{8}7b-4[8:1],3,{4}7,{8}3b/5,2-5[8:1],6,2,
{4}8b<4[4:1],4>8[4:1]*z8[4:1],{8},,,,2/5,
{16}3,4,,3,,,{8}7/4,{16}6,5,,5,{8}6,
8,7/1h[16:3],{16},4,,,{8}5/2,{16}3,4,,4,{8}3,
7/4,{16}6,5,,6,,,{8}5/2,{16}3,4,,4,{8}3,
{4}2/8h[4:1],4,{8}4/7,{16}6,5,,5,{8}6,
2h[8:1],{16}4,2,5,4,,,{8}8/3,{16}2-5[8:1],1,,1,{8}2,
7h[8:1],{16}5,7,4,5,,,{8}1/6,{16}7-4[8:1],8,,8,{8}7,
2h[8:1],{16}5,3,6,4,,,{8}4/6,{16}7,5,,2,{8}4,
{4}3-8[8:1]/4-8[8:1],4/3,{8}7,{16}2,2/1,,6,{8}5/7,
2h[8:3],3,4,5,{16}4/6h[8:3],,,1,,,{8}7,
,3h[4:1],4pp2[8:3],6h[16:5],{2}4,
{8}7h[8:3],6,5,4,{16}5/3h[8:3],,,8,,,{8}2,
,6h[4:1],5qq7[8:3],3h[16:5],{2}5,
{8}2h[8:3],3,4,5,6/1,{16}8,7,{8}8,6/5,
,4h[4:1],2qq5[8:3],8h[16:5],{2}2,
{8}7h[8:3],6,5,4,3/8,{16}1,2,{8}1,3/4,
,5bpp1[2:1]/1bpp5[2:1],,,,,,,7-4[8:1],
2,{4}4-7[8:1],7-4[8:1],2,
{8}1-4[8:1],6,{4}4-1[8:1],1-4[8:1],7,
{8}8-4[8:1],1,{4}2-5[8:1],8-4[8:1],1,
2b-5[8:1],7b-3[8:1],{8}4b-8[8:1],2b,{4}4b,
{8}2>5[8:1],8,{4}6>3[8:1],2>5[8:1],8,
{8}8V64[8:1],1,{4}4<7[8:1],8V64[8:1],2,
{8}2>5[8:1],1,{4}8-4[8:1],2>5[8:1],1,
7b-4[8:1],{8}7b/1b-5[8:1],2b,{4}1b,8qq8[8:7],
{1}4bqq4[8:5]*qq4[8:5],
7bq1[8:5]/3bq5[8:5],
{2}3h[4:1]/7<4[8:1],{8}1q5[8:1],6h[8:3],{4}1,
{16}4,6,3,5,{8}2h[2:1],1,{4}8-4[8:1],8b,
{1}3h[4:3]/7bq1[2:1],
7h[4:3]/3bq5[2:1],
{8}2b-4[8:1]/5b-1[8:1],6/3,{4}5/2,{8}8b-6[8:1],5-1[8:1],8b,5,
{16}6,8,,4,{8}2,{16}6,5,{4}8w4[8:1],8b,
{8}2/1-5[8:1],8,{4}1/7,{8}2/1-5[8:1],8,{4}1/7,
{8}2/1-4[8:1],8,1/7V15[8:3],6,{2}5/7,
{8}2-5[8:1]/6-1[8:1],3/7,{4}6/2,{8}8/2-5[8:1],4/6-1[8:1],2,6,
3h[8:1],{16}8,3,{8}6,{16}2,5,{4}7-3[8:1],7b,
{8}2/4<8[8:1],5,{4}4/6,{8}2/4<8[8:1],5,{4}4/6,
{8}3/4>8[8:1],5,4/6qq7[8:3],7,{2}8/6,
{8}3>8[8:1]/7<4[8:1],2/6,{4}7/3,{8}5/3>8[8:1],1/7<4[8:1],3,7,
{1}2bp6[2:1]*s6[2:1],
{4}4bq5[8:5],5,6,7,
8-4[2:1],1,2,3,
5p4[4:3],4,3,2,
1b-5[2:1],8,7,6,
7bqq4[8:5],1,2,3,
4-8[2:1],3,2,1,
2pp5[8:5],8,7,6,
{2}5h[2:1],{8}7,{16}7,8,,2,{8}1,
7/4,{16}6,5,,7,{8}1,2/5,{16}3,4,3,5,{8}2,
4/8,{16}7,5,6,5,{8}7,2/5,{16}4,3,4,4,,,{8}2/5,
{16}3,4,,2,{8}8,7/4,{16}6,5,6,4,{8}7,
5/1,{16}2,4,3,4,{8}2,7/4,{16}5,6,5,5,,,{8}5/3h[8:1],
{16}4,3,6,5,{8}7,4/6h[8:1],{16}3,8,5,6,,,{8}4/6h[8:1],
{16}5,6,3,4,{8}2,5/3h[8:1],{16}6,1,4,3,,,6,
5,7,3,4,2,5,3,6,4,7,3,6,2,5,1,
{1}4b<4[4:5]/8bq1[4:5],
E
