&title=平成河童大系
&artist=SOUND HOLIC
&first=0.06
&des=河童重工co. ltd
&des_5=河童重工co. ltd
&lv_5=13+
&inote_5=(170){1},{4}1xb>4[4:5],7,,7,
,1,,1,
5x<8[4:5],2,,2,
,4,,4,
3xh[4:1],{8}5,5,{4}4,{8}6,5,
,7,4,5,{2}3-5[8:1]*v6[8:1],
{4}7xh[4:1],{8}4,4,{4}5,{8}3,4,
,2,5,4,{2}6h[2:1],
{4}3h[4:1],{8}4,5,{4}6h[4:1],{8}4,3h[4:1],
,4,5>3[8:1],6,{2}8p4[8:1],
{4}3h[4:1],{8}5,4,{4}6h[4:1],{8}5,3h[4:1],
,5,6-4[8:1],4,{2}1q5[8:1]*>4[8:1],
{4}6h[4:1],{8}5,3,{4}1h[4:1],{8}4,6h[4:1],
,5,4<6[8:1],3,{2}1q5[8:1],
{4}7h[4:1],{8}3,5,{4}1h[4:1],{8}6,4pp5[8:5]*>6[2:1],
{1},{8}3/4,
5,1,{16}6,5,{8}6,7,4pp2[4:3],3V51[8:5],
{1},{8}3/4,
5,1,{16}6,5,{8}6,7,3,2qq3[4:3]/4<1[2:1],
{1},{8}6/4,
5,8,{16}3,4,{8}3,2,5qq7[4:3],6V41[8:5],
{1},{8}6/5,
4,8,{16}3,4,{8}3,2,6,7s3[8:5]/5z1[8:5],
{1},{4}7<4[8:1],
{8}3,3>8[8:1],,7,{4}7,
4-1[8:1],{8}8,8<5[8:1],,3,{4}3,
8-5[8:1],{8}1,2>5[8:1],,8,{4}7-4[8:1],
3-8[8:1],{8}5,6v1[8:1],,3,{4}4,
{8}2,2,7,7,{16}1,8,1,8,1,8,1,8,
{8}1x,2x,3x,4x,5x,6x,7x,8x,
{2}1bv6[8:1]*>4[8:1],{8}8,8,{4}1/7h[8:1],
1V35[4:1],5V71[4:1],{2}1,
{8}6,5,4,3,{2}2-5[8:1]/6-8[8:1],
{8}1-4[8:1],7,{4}1-6[8:1],{2}1/7h[4:1],
1q5[8:1]/5q1[8:1],{8}6x,6x,2,7,
6x-4[8:1],6x,{4}2-7[8:1],{2}2/5h[4:1],
{8}6,5,3,6,{2}3-8[8:1]/7-4[8:1],
{8}3xqq4b[8:3],5xpp4b[4:1],{4}3,,2x/6x,
{8}4/6,4/6,{4}4/6,{8}2/5,{16}3,4,{4}3,
{8}3/5,3/5,3/5,6,{4}1v4[8:1]/7v4[8:1],17,
{16}1,8,1,8,{8}1,2/7,{4}2-5[8:1]/7-1[8:1],27,
{8}7,6,3/5,2,{4}1v4[8:1]/8-5[8:1],1b/8b,
{4}1/8-4[8:1],7/8,8/1-5[8:1],1/2,
3/4,{8}4p4[4:1]*>8[4:1]/3,34,{2},
{8}6<1[8:1]/5,6/5h[4:1],,,3^8[8:1]/4,3/4h[4:1],,,
{8}6xqq5[6:1],6x,6<2[6:1],,,,A3/D3,,
{8}8-5[8:1]/6,8,1,,1-4[8:1]/3,1,8,,
{4}7-3[8:1]/5,4V28-6[8:3]/7,5h[4:1],,
{8}5q1[8:1],5,3,,2q6[8:1],2,1,,
{4}8-5-8[8:3]/4-1-4[8:3],,,C,
{4}1>5[8:3],,8V63[8:3],,
2-5-1[8:3],,8V61[8:3],,
4V25[8:3],,1<3[2:1],,,,{8}7/8,7/8,{4}6b/1b,
6,6q2[8:1],3,3p7[8:1],5
,4/5-1[8:1],{2}5h[8:2],
{4}5/4-8[8:1],45,{8}17,26,{4}3/5h[1:1],8,
1b,1b-4[8:1],1b,
{8}6<1[8:1],6,5,5,4>1[8:1],4,5,6,
7<4[8:1],8,1-5[8:1],8,{4}1-4[8:1]*-6[8:1],1,
{8}2>5[8:1],2,6,7,8-4[8:1],8,4,2,
8>3[8:1],8,5V74[4:1],5,4-8[8:1],2,{4}8,
{8}1q5[8:1],8,{4}6,{8}7<4[8:1],7,{4}4,
{8}2-4[8:1],1/5,{4},{8}6<1[8:1],5/3,{4},{8}3/4,
3,5/6,6,4/3,2,5/6,7,
{4}2b-5[8:1],7b-4[8:1],1bw5b[8:1],1bx,
{8}3>8[8:1],3,4,5,6V48[4:1],6,4,3,
2>5[8:1],1,8-4[8:1],1,{4}8w4[8:1],8,
{8}7<4[8:1],8,4,2,8-4[8:1],8,5,7,
1<6[8:1],1,4V25[4:1],4,5-1[8:1],7,8,6,
8p4[8:1],1,{4}3,{8}2>5[8:1],2,{4}5,
{8}7-5[8:1],8/4,{4},{8}3>8[8:1],4/6,{4},{8}6/5,
6,4/3,3,5/6,7,6/4,8,
{16}2b,4,3,4,2b,5,4,5,{4}1bw5[8:1],1b,
{8}1,1,{16}2,5,3,6,4,5,3,6,2,,2,,1,7,2,6,3,5,4,6,2,,1bx/7bx,,{4}1bx/7bx,
{2}C/8<5[8:1]*>3[8:1],C/1>4[8:1]*<6[8:1],{8}7h[4:1],
8,1,2,3xh[4:1],1,8,7,6xh[4:1]/B3,,,,4xh[4:1]/B6,,,,6h[4:1],5,4,3,3h[4:1],4,5,6,
{2}B4,B7/B8,B3/E3/E4,B7/B8/E8,1/Ch[1:1],,{4}1-5[8:1],1,{8}2x/8x,3b/7b,4b/6b,,
{8}
2-5[8:1]/6,1,26,8,7-4[8:1]/3,8,37,1,
1-7[8:1],6,1-5[8:1],5-2[8:1],1,7,6-1[8:1],5,
6-4[8:1],3,6,2-5[8:1],1,2,8-4[8:1],3,
8^6[8:1],1,8-4[8:1],3,8-3[8:1]*-5[8:1],1,8b,,
2>5[8:1],1,2,,6p2[8:1],1,6,,
1v6[8:1],7,1,,7^2[8:1],1,7,,
3,3h[4:1],2,5,6,6h[4:1],7,4,
{16}3,5,4,6,3,7,2,8,1s5[8:1]b,,8b,,8b,,,,
{4}2xh[4:1]/A6/E6/D6,,8xh[4:1]/A3/D4/E4,,
1xh[4:1]/A6/E6/B6,,7xh[4:1]/Ch[4:1],,
2-8[8:1],6-2[8:1],3-7[8:1],5>6[4:3],1x,2xh[8:1],3xh[8:1],4xh[8:1],
{16}4,6,4,6,3,6,3,6,2,6,2,6,1,6,1,6,
8,7,8,7,1,8,1,8,2,7,2,7,3,6,4,5,
1bh[4:2],,,,,,,,4b,,,2b/7b,,,8b/3b,,
8bh[4:1]/3b,,,,1x,2x,3x,4x,5xs1[6:1]b,,,,E5f/B4/B5,,,,
