&title=CYCLES
&artist=Masayoshi Minoshima feat. 綾倉盟
&first=0
&des=Mawa_Rurene
&lv_7=廻
&inote_7=(135)
{1},
{4}1,2,3,4,
{4}5,6,7,8,
{4}1,8,7,6,
{4}5,4,3,2,
{8}1,2,3,4,5,6,7,8,
{8}1,8,7,6,5,4,3,2,
{16}1,2,3,4,5,6,7,8,{16}5,4,3,2,1,8,7,6,
{32}1,2,3,4,5,6,7,8,1,2,3,4,5,6,7,8,{2}1h[4:1]/5h[4:1],
{8}1b/6,2,37,4,58,6h[4:1],,8,
{8}83,7,62,5,41,3h[4:1],,1,
{8}13,24,35,46,57,68,57,46,
{8}35,2,15,8,75,6h[4:1],5,5,
{8}54,6,73,8,14,2h[4:1],,4,
{8}45,3,26,1,85,7h[4:1],,5,
{8}57,68,71,82,13,24,13,82,
{8}71,6,51,4,3h[4:1]/1h[4:1],,,8,
{8}7h[4:1],6,5,4,3h[4:1],2,1,8,
{8}37,26,15,48,3h[8:1]/7h[8:1],,8,1,
{8}2h[4:1],3,4,5,6h[4:1],7,8,1,
{8}62,73,84,51,6h[8:1]/2h[8:1],,7,8,
{8}1h[4:1],2,3,4,5h[4:1],6,7,8,
{8}51,62,73,48,5h[8:1]/1h[8:1],,2,1,
{8}8h[4:1],7,6,5,4h[4:1],3,2,1,
{8}48,37,26,51,4h[2:1]/8h[4:1],,,,
{8},,,,,,1,8,
{8}7b/3,6,51,4,73,2,51,8,
{8}73,6,51,4,7/3h[4:1],,8,1,
{8}26,3,48,5,26,7,48,1,
{8}26,3,48,5,2/6h[4:1],,8,7,
{8}62,5,48,3,62,1,48,7,
{8}62,5,48,3,6/2h[4:1],,1,2,
{8}37,4,51,6,37,8,51,2,
{8}37,4,51,6,3/7h[4:1],,1,1,
{16}1b/5,2,3,4,15,6,7,8,15,2,3,4,15,6,7,8,
{16}15,2,3,4,15,6,7,8,{4}1h[4:1]/5,{8}8,8,
{16}84,7,6,5,84,3,2,1,84,7,6,5,84,3,2,1,
{16}84,7,6,5,84,3,2,1,{4}8h[4:1]/4,{8}3,3,
{32}3b,4,5,6,7,8,1,2,{8}3h[4:1]/6,6,{32}6b,5,4,3,2,1,8,7,{8}6h[4:1]/2,2,
{32}2b,3,4,5,6,7,8,1,{8}2h[4:1]/7,7,{32}7b,6,5,4,3,2,1,8,{8}7h[4:1]/1,1,
{32}1b,2,3,4,5,6,7,8,1,2,3,4,5,6,7,8,{8}1h[2:1]/5,6,7,8,
{32}8b,7,6,5,4,3,2,1,8,7,6,5,4,3,2,1,{8}8h[2:1]/4,3,2,1,
{1}1b>8[1:1],
{1}8>7[1:1],
{1}7>6[1:1],
{4}6<3[8:5],,,8b,
{12}73,6,5,48,3,2,15,8,7,{4}6h[8:1]/2h[8:1],
{12}26,3,4,51,6,7,84,1,2,{8}3/7h[4:1],4,
{16}5,4,3,2,18,7,6,5,34,2,1,8,{8}7/6h[4:1],8,
{32}8,7,6,5,4,3,2,1,8,7,6,5,4,3,2,1,{4}8b/4b,{8}3/7h,4/8h,
{16}5b/1h,6,7,8,1/5h,2,3/7h,4,1h/5,6,7,8,1/5h,2,3/7h,4,
{16}5/1h,6,7,8,1/5h,2,3/7h,4,{4}1h/5b,{8}6/2h,5/1h,
{16}4/8h,3,2,1,8/4h,7,6/2h,5,8h/4,3,2,1,8/4h,7,6/2h,5,
{16}4/8h,3,2,1,8/4h,7,6/2h,5,{4}8h/4b,{8}3/7h,4/8h,
{16}5/1h,6,7,8,1/5h,2/6h,3/7h,4/8h,1h/5,6,7,8,1/5h,2/6h,3/7h,4/8h,
{16}5/1h,6,7,8,1/5h,2/6h,3/7h,4/8h,{4}1h/5b,{8}6/2h,5/1h,
{16}4/8h,3,2,1,8/4h,7/3h,6/2h,5/1h,8h/4,3,2,1,8/4h,7/3h,6/2h,5/1h,
{16}4/8h,3,2,1,8/4h,7/3h,6/2h,5/1h,{4}8h/4b,{8}3/7h,2/6h,
{32}1b/5h,2,3,4,5,6,7,8,1/5h,2,3,4,5/1h,6,7,8,1/5h,2,3,4,5,6,7,8,1/5h,2,3,4,5/1h,6,7,8,
{32}1/5h,2,3,4,5,6,7,8,1/5h,2,3,4,5/1h,6,7,8,{4}1b/5h,{8}6/2h,7/3h,
{32}8/4h,7,6,5,4,3,2,1,8/4h,7,6,5,4/8h,3,2,1,8/4h,7,6,5,4,3,2,1,8/4h,7,6,5,4/8h,3,2,1,
{32}8/4h,7,6,5,4,3,2,1,8/4h,7,6,5,4/8h,3,2,1,{4}8b/4h,{16}1/5h,2,3/7h,4,
{32}5b/1h,6,7,8,1,2,3,4,{16}5/8h,7h,6h/2,5h,{32}4h/8b,3h,2h,1h,8h,7h,6h,5h,{16}4h/8,1,2/6h,3,
{32}4b/8h,5,6,7,8,1,2,3,{16}4/1h,8h,7h/3,6h,{32}5h/1b,4h,3h,2h,1h,8h,7h,6h,{8}5h/1,5h/1,
{32}1p5[8:1]/5p1[8:1],2/6h,3/7h,4/8h,{8},{4}1h/5,{32}1/5h,2/6h,3/7h,4/8h,{8},8h/4,8h/4,
{32}4q8[8:1]/8q4[8:1],3/7h,2/6h,1/5h,{8},{4}4h/8,{32}4q8[8:1]/8q4[8:1],3/7h,2/6h,1/5h,{8},{4}8<8[1:1]/4>4[1:1],
