&title=nostos
&artist=Setaria Virtuoso
&first=-0.089
&des=白-ster
&demo_seek=93
&lv_5=13+
&des_5=
&inote_5=
(128){4},{8},1/2>5[4:1],{12}8,7,6,6h[8:3],{24},,,,,,,{8}8,
,4h[4:1],,,,6,
2,3,{12}4,5,{24},,{8}6/5,3,4/5,2>4[8:1],
,2,7<5[8:1],3,7,3,2,1-5[8:1],
,1/3,{16},,6/4h[2:1],7,8,1,{8}2,,3b,
,,,,,6,7,8/3h[2:1],
{16}1,8,{8}7,,1-5[8:1],,1/2,3,4-8[8:1],
,4/5-7[8:1],,5/1-3[8:1],,1/8-4[8:1],,8,
,5/2-4[8:1],,2/6-8[8:1],,6/1-3[8:1]*-5[8:1],,1,
,,3,2-5[8:1],,6/2,{4}7v4[8:1]*-2[8:1],
,3-8[8:1],{8}3/4,5,{4}6,
{8},,2,2,,,7,6,
{24}1,2,3,4,,,{8}4/5,5/4-1[8:1],,4,,7,
6,5-1[8:1],,1-3[8:1],,3-7[8:1],,7-5[8:1],
,5-3[8:1],,3-8[8:1],,8,7,6,
,,2/4,5-1[8:1],,5/2>4[8:1],,2-6[8:1],
6-8[8:1],2/8-4[8:1],,5,,3/5,,1-5[8:1],
5-3[8:1],7/1-3[8:1],8,1,4-1[8:1],5,4/6,7,
,3h,,(132)4b/5b,,8/2-5[8:1],1,2/3-8[8:1],
,6/3,{16},,7,1,6,2,{8}5-1[8:1],4,5/3,
2,1,8-4[8:1],7,8/6,5,4,3b<6[8:1],
,3,,7/8-4[8:1],,8/3-1[8:1],,3/5,
6,7,8,3/1-5[8:1],,1/8,7,6,
5,2,6,3,7,6-8[8:1]/3-1[8:1],4/5,3/6,
{16},,7,2,6,3,5,4,{8}5,3-8[8:1],4,3,
5,6-1[8:1],5,6,4,3-7[8:1],2,1,
8,7-3[8:1],6,5,4,3/1,8/4,7-2[8:1]/5-2[8:1],
,7/5,,1,8/4,2/6<1[8:1],,6/2,
3,4,{24}8,7,6,5-1[8:1],,,,,,{8}5/2z6[4:1],,2,
,,,,,,,,8/1,
3h[4:1]/6h[4:1],{16},,,,,,2,1,{8}2,3-8[8:1],
4/7,6/3,{16},,7,8,{8}7,6-1[8:1],5/2,3/6,
{16},,(144)3,8,{8}2,2/1,8,7/4,{16},,6,5,
{8}6,{16}7/4,4/7,{8}4/7,{16}6,6,{8}3>1[8:1],8,3,{16}7,7,
{8}4,{16}3,3,{8}6<8[8:1],1,6,{16}2,2,{8}5,4/8,
{16}3<5[8:1],1,,,3,7,{8}7,{16},3>1[8:1],{8}1,{16}8,3,,,,,7,
7,1,1,{8}8,{24}3,4,{12}3,{24},,,,,{8}1/5-1[8:1],
2,3/5,4,{16}3,8,{8}3>1[8:1],7,3,6,
{24}7,8,{12}7,{24},,{8}8,1-5[8:1],2,3/1,4,{16}3,6,
{8}3,{16}5,5,{8}5,6/4,{24}2,1,{12}2,{24},,{8}7,6-4[8:1],
3,6,2,{16}3,5,{8}3,{16}7,6,5,4,{8}3/1,
{24}7,8,{12}7,{24},,,,,{8}3/1-5[8:1],2,1/8,7,{16}6,4,
7,3,8,2,{8}1,{32}8b,7,{16}6,{32},,,,4b,3,{16}2,{32},,,,7b,6,{16}5,
{32},,,,3b,2,{16}1,,,{8}8/7,{32},,,,2b/5b,3/4,,,,,,,1b/8b,2/7,,,,,,,3b/6b,
4/5,,,,,,,{8}1/2,{32},,,,8b/4b,7/3,{16}6/2,{32},,,,1b/5b,2/6,{16}3/7,
{32},,,,8b/4b,7/3,{16}6/2,,,{8}4/5,{32},,,,1b/2b,8/3,,,,,,,7b/4b,6/5,,,,,,,{8}3h[16:1]/4h[16:1],
4h[16:1]/3h[16:1],3b/4b,{16}5,2,{8}5,2/1,{32}8,7,{16}6,
{24}3,4,3,4,{96},,,,,,,,{32}6b/3b,4/5,{96},,,,,,,,,,,,,,,,,,{24}2,1,2,1,,,{8}3/2,4/5,
{24}6,5,6,5,{96},,,,,,,,{32}1b,2,{16}3,{8}6,{24}4,5,4,5,{96},,,,,,,,{32}8b,7,{16}6,{48},,,,,,{24}3,
1,3,2,{96},,,,,,,,{32}8b/7b,1/6,,,{8}3/4,{24}6,5,6,5,,,4,7,3,8,,,{8}2b/1b,
{16}8b,3,7,4,6,6/2,,3/4,,3,,2/5,{8}2,
{16}1,6/1,,8,{8}3/8,{16}2-5[8:1],1,,8,{8}2,8,{16}7/4,4,
,8/3,8-4[8:1],2,6,4,{8}8b,{1},,,{4},,,{8},2/1h[4:1],
{16},,4,3,2,1,{8}8/7-4[8:1],
,7/2,1,8-3[8:1],,2-5[8:1],,4-7[8:1],
,6-1[8:1],,8,,2,3/4,5,
{4}6<8[8:1],{16}6/2<8[8:1],3,{8}4,{16}6/2,5,{8}4,{16}1,2,{8}3,
4/6,{16}5,5,5,5,{8}5,3/4,2/8,{24}6,5,{6}6,
{8}8/2,{16}7,6,5,4,{24}3,8,3,{8}1p5[8:1],7,{16}1/2,3,{8}4,
{24}7>1[8:1],5,7,4>2[8:1],,,{8}7,4,8,1/3,{24}2,1,2,8,{12}3,
{8}1/2,{32}6/3,4/5,,,,,,,{16}2/8,3,4,5,6/8,1,2,3,4/1,2,
3,4,{8}5b/7b,1-5[8:1]/2-4[8:1],6/5,{4}1/2,{8}8-4[8:1]/7-5[8:1],3/4,
{4}8/7,{16}3,5,{8}3,2,{32}8/1,2/7,,,,,,,{16}7/1,6,
5,4,{8}3b/1-4[8:1],2,1-6[8:1],8,1-4[8:1],2,1,
8b,7/3,8/6,(138){16}1,2,3,4,{8}5,7/8,1/6,
2,(128){16}8,7,6,5,{8}4,2/1,8,{16},,(116)7,6,
5,4,{8}3,2/1,8,(100)7,6-2[0.6##0.3488],3/4,(86)6-8[0.6977##0.3488],
1,6,2-4[0.6977##0.3488],1/7,2,(112)7,6,5,
4/3>1[0.5509##0.283],(106)8,3,7,6>4[0.566##0.2941],2,(102)6,1,
4/2<8[0.6274##0.2679],(90)3,(112)2,6,(90)5,3,2/1,8<5[8:1],
2/5<8[8:1],8,{24},,,1,2,3,4,5-8>1-4[3:1],
E
