&title=ネコソギマターバップ
&artist=sasakure.UK
&first=0
&lv_5=13+
&des_5=Der Flohwalzer
&inote_5=
(260){4},,,,6/4,
7,6/5,4,
6/3,{8}4,5,4,5,{4}4,
3,5/4,6,5/4,
{1}3x>7[2:1],
{4}5h[4:3],B7,C,B2,
4h[4:3],B2,C,B7,
6/5,7,6/5,4,
{1}3-7-5-2[8:5],
{4}5h[4:1],3,6h[4:1],4,
5h[4:1],{8}3,5,,4,{4}3,
6/5,7,5/4,3,
{1}2x-6V48[8:5],
{4}5h[4:3],E1,B7,B5,
3h[4:3],B7,E1,C,
{8}6,5,,5,{4}4,{8}4,3,
,2,{16}2,1,8,7,6,5,4,3,{4}2x/7x,
8b/1b,{12}6,,6,{6}5,{12}5,4,,4,
{6}3,{12}3,2,,2,{6}1,{12}1,8-4[4:1],,,{2}8,
{4}7/5,4,
{2}3h[4:1],6h[4:1]/4h[4:1],
{4}5<1[4:1],{16},,,,,,,,4,,,3,
,,,,{4}5/4,6-8[8:1],5,
4,3,1,8,
6,5-3[8:1],6,6,
4,3/5,{8}6,5,,5,
{4}4,3/6,{2}5h[4:1]/4h[4:1],
{4}6/3,{8}6,5,,5,{4}4,
{8}4,3,,3,{2}2-5[8:1],
{8}6h[8:1],,,7,,8,{16},,2x,3x,
4x/5x,6x,7x,8x,{4}1x,{12}1,8,1,8,1,8,
1,8,1,8,{48},,,,,,,,{16}6,,,5,,,{8}4,
{32},6/3,,,,,,,{4}7/2,{2}1s5b[8:1]/8z4[8:1],
{4}3-1[8:1],5,6-8[8:1],3,
{8}1-5[8:1],,,7,,,{4}6/3,
{6}5,{12}5,4,,4,{6}5,{12}5,4,,4,
{4}5-3-1[4:1],,,7-5[8:1],
4,2-5[8:1],{2}6,
{8}7,6,5,4,,2,5,3,
{2}7v4[8:1],1-6[8:1],
3-7[8:1],{4}6/2,5/3,
2-5[8:1],7,6-4[8:1],3,
{8}3-8[8:1],,,6,,,{4}3/4,
{6}5,{12}5,4,,4,{6}5,{12}5,4,,4,
{8}5<8[4:1],,,3,,,4,5,
4,5,4,6,3,6,4,6,
3,7,3,7,6,5,4,3,
{4}2v5V31b[8:3],,,8/7,
,6,5,4,
{1}3h[2:1]/5h[2:1],
5h[2:1]/7h[2:1],
4h[2:1]/5h[2:1],
7h[2:1]/3h[2:1],
3h[2:1]/6-2[4:1],
6h[2:1]/2-5[4:1],
7h[2:1]/5-1[4:1],
5h[2:1]/8-3[4:1],
{4}5/4-1[4:1],4h[4:1],,,5/6-1[4:1],
6h[4:1],,,1/7-3[4:1],
7h[4:1],,,5/3<7[4:1],
3h[4:1],,,{1}6<2[1:1],
2>5[1:1],
5<8[4:5],
{4},8v3[4:3]*v6[4:3],,,,,{2}C/B1/B2/B3/B4/B5,
{6}5,{12}5,4,,4,{6}5,{12}5,4,,4,
{6}6,{12}6,3,,3,{6}6,{12}6,3,,3,
{6}7,{12}7,4,,4,{6}6,{12}6,4,,4,
{6}5,{12}5,4,,4,{2}6/3,
{4}4/6h[2:1],3,{2}4,
{4}3h[2:1]/7-4-6[8:3],7,,,6,
5,4,3,
{6}6,{12}6,5,,5,{6}4,{12}4,3b/C,,,,,,{4}6h[2:1],
{12},,,,,,{6}5,
{12}5,6,,6,{6}5,{12}5,4,,,{4}6/3,
7/2,,5/4,
{6}3,{12}3,5,,5,{6}7,{12}7,5,,,{4}6/3,
7/2,,6/3,
5,{8}4,6,,3,{4}4,
{8}7,5,,2,{4}4,{8}5,4,
{16},,3,4,{4}5-1-7-5-3-7[1:8],{2}Cf,
{1},,,,,,,,{4}4/3,
5h[8:1]/6h[8:1],{8},,6,5,
{4}3/4,6h[8:1]/3h[8:1],{8},,4,5,
4,,,5/6,{4}4h[6:1],2h[6:1],
8h[6:1],6h[6:1],3h[6:1],4,
6/5,{12}6,,5,,,3,5,3,5,
{6}3,{12}6h[3:1],4,,,,,,5,4,,{4}6/3,
{12}4,6,4,5,4,6,4b>1[4:1],5,4,
,,,,,,{4}Cf,6/3,
2-6[8:1],7,8-4[8:1],1,
5/2v5V31[2:1],6,{8}7,,,6,
{4}6,4>2[8:1],5,6<8[8:1],
{3}5,{12}B2,B3,{24},,,,,,{8}7,6,
{2}5h[4:1],4h[4:1]/2h[4:1],
{4}7/5,6/4,5/3,6/4,
7h[4:1],5h[4:1],3,3,
2-4<6[4:1],6-8-2b[4:1],,,6-1[8:1],
3,2-5[8:1],7,
8V64q8[2:1],3,2,1,
{2}2h[4:1],6h[4:1]/4h[4:1],
{4}8qq8[8:3],{8},,,,1,2,
{4}3,4h[4:1]/6h[4:1],,5,
4,6/3,{16}4,5,4,5,{4}4,
6h[8:3]/3h[8:3],,,5,
{2}3x-1[8:1],7x-5[8:1],
{4}4x,3,6x/8,4/2,
1x>5[4:1],5<1[4:1],1x>5[4:1],5w1[4:1],
{1}A5f,
{2},,,,,8h[2:5]/B2h[4:11]/B3h[1:3]/Cfh[4:13],
{1},,,{4},{16}3/8h[8:1],
4,{8}5,{16},,3/8h[8:1],4,{4}5,
{16}1v4[8:1],,,7,{4}1,{16}8-5[8:1],,,2,{4}8,
2q6[8:1],1,{16}8p4[8:1],,,2,{4}8,
2-6[8:1],1,8-4[8:1],3,
{1}6h[2:1]/2v5V38[2:1],
{8}1,8,1,8,2,7,2,7,
3,6,3,6,4,5,4,5,
C,B7,B8,B1,B2,B3,B4,B5,
B6,E8/E7,E2/E3,E4/A4,E6/A5,B8/B7/B4/B3,{4}Cf,
3bx/6bx-1[8:1],4,7/2-5[8:1],8,
3x/7-2[8:1],5,6/3-6[8:1],8,
1x>5[4:1],5<1[4:1],1V35[4:1],5V71[4:1],
{2}1b-5[4:1],{4}7,8/2,
{16}1-5[8:1],,,7,{4}1x,{16}8-4[8:1],,,2,{4}8x,
{8}6,6,5,5,4,4,3,3,
{4}5-2[8:1],5-1[8:1],5-7[8:1]*-8[8:1],5x,
{16},,,,2bx/8bx,3/7,{8}4/6,{16},,3bx/5bx,6/2,{4}7/1,
7x/4-1[8:1],5,3/8-5[8:1],1,
6x/3-6[8:1],8,5/7-2[8:1],4,
6h[8:1],5h[8:1],4h[8:1],3h[8:1],
2h[4:3]/1<5[4:1],1,{8},,,,4,
5,3,6,2,5,3,6,
4,7,3,6,{2}4xh[4:1],
6-3[8:1]*>3[8:1],2-7[8:1]*v7[8:1],
1-4[8:1]/8-5[8:1],{4}3b-7[8:1]/6b-2b[8:1],Cf,
{16}8-4[8:1],,,2,{4}8x,{16}2-6[8:1],,,7,{4}2x,
{16}5>2[8:1],,,7,{4}5x,{16}1V75[8:1],,,2,{4}1x,
2-5[8:1],7,4/6-1[8:1],2,
{2}7b/3xh[4:1],{16}7/3,6,5,4,3,2,1,8,
7-4[8:1],,,2,{4}7,{16}2-5[8:1],,,7,{4}2,
1<6[8:1],1>4[8:1],1-5[8:1],1b,
7h[8:1]/3h[8:1],6h[8:1]/2h[8:1],5-1[8:1]/1-5[8:1],1b/5b,
{24},,,,,,8bx/2h[8:1],7,6,5,,,,,,1bx/7h[8:1],2,3,{4}4,
2/6-1[8:1],4,6/2-5[8:1],7,
6/3,7/4,1/5,7/3,
8x-4[8:1],2-5[8:1],6x-1[8:1],2-6[8:1],
8x-4[8:1],3x-8[8:1],{2}3b/B1f,
{6}6,{12}6,5,,5,{6}4,{12}4,3,,3,
{16}4,,,4,5,,,5,6,,,6,{12}7,,7,
{6}6,{12}6,5,,5,{6}4,{12}4,3,,3,
{4}2-6[6:1],2,8-3[6:1]*-5[6:1],8,
{1}2b/6-4-7-3-8-2[2:3],
{2},,4,
{16}5,,,4,,,{8}3,
{16},2-6[16:7],,,,,,,,,,,,,,,{4}4h[8:7],
{8},,,,7,6,
,5h[8:1]/2h[8:1],{24},,,,,,{6}5,{12}5,4,,4,
{6}3,{12}3,2<7-5[2:1],{24},,,,,,,,,,,,,,,,{8}4h[4:3],
,,,,,,6,
,5,{4}4,{16}6h[4:1],,,,,,,1-4[16:5],
{4},,,{12}6,5,7,
4,6,3,7<4[2:1],,,,,,,,,{1}3h[1:1],
{12},,,5x,6,4,7,3,8,2,7,5h[4:1],
,,,,{6}4,{12}4,5,,5,4,,4,
3,{6}6,{12},,6,4,8,2,{24},{8}2-6[8:1],
,8-4[8:1],,1-5[8:1],,7-3[8:1],,2xh[2:1],
{16},,,,,,,,3,4,5,6,7,8,1,2,
{12}3x,4,5,6,7,8,1,2,3,4x,{24},{8}5,
6,7,8,1,2,3,{12}4x,5,,{6}6,
7,8,1x,{12},{4}2,
3,4,5,6,
7bh[2:1],{16}1x,2,3,4,5x,6,7,8,1x,2,3,4,
{2}5bw1[2:1],E8/E7/E6/E1/E2/E3/E4/E5/Cf,
E
