&title=ハルラ
&artist=Endorfin.
&first=0
&des=LTCiris~
&clock_count=4
&lv_5=13
&inote_5=(198)
{16},,,,
,,,,
,,,,
,,,,
{16}3,,,,
3,,,,
3,,3,,
,,3,,
{16},,3,,
3h[2:1],,,,
A1,,,,
C,,,,
{16}7,,,,
7,,,,
7,,7,,
,,7,,
{16},,7,,
7h[2:1],,E6,E5,
E4,,,,
C,,,,
{16}2,,,,
2,,,,
2,,2,,
,,2,,
{16},,2,,
2h[2:1],,E4,E5,
E6,,,,
C,,,,
{8}8,,8,,8,8,,8,,8,8h[8:4],,E6,,E4,,
{16}2h[4:1],,,,
5h[4:1],,,,
3,,3h[4:1],,
,,6h[4:1],,,,
{8}5,5h[8:4],,E7,,E5,,
{16}7h[4:1],,,,
4h[4:1],,,,
5,,5h[4:1],,
,,3h[4:1],,,,
{8}4,4h[8:4],,E3,,E5,,
2x,3x,4x,2x,3x,4xh[8:2],,1h[8:2],
,8,8h[8:4],,E2,,E6,,
7x,6x,5x,7x,6x,5xh[8:2],,8h[8:2],
,1,1h[8:4],,E8,,E6,,
{16}2h[4:1],,,,
4h[4:1],,,,
5,,5h[4:1],,
,,7h[4:1],,,,
{8}4,4^1[8:3],,E7,,E5,,
{16}7h[4:1],,,,
5h[4:1],,,,
4,,4h[4:1],,
,,2h[4:1],,,,
{8}5,5^8[8:3],,E5,,E3,,
{16}1h[4:1],,,,
8h[4:1],,,,
3,,3h[4:1],,
,,7h[4:1],,,,
{8}5,5p2[8:4],,E1,,E7,,
{16}6h[4:1],,,,
1h[4:1],,,,
8,,8h[4:1],,
,,1,,
{16}2x,6,3,5,
4,,54,,
3,,2,,
6,,7,,
{16}8qq3[16:10]/4,,,,
4,,,,
4,,,,
4<1[8:4],,,,
{16}2,,,,
2,,,,
3,,,,
54,,,,
{16}1pp5[8:5]/6,,,,
6,,,,
6,,,,
6>1[8:4],,,,
{16}7,,,,
7,,,,
8,,,,
18,,,,
{16}8qq3[8:5]/5,,,,
4,,,,
3,,,,
2,,,,
{16}1pp6[8:5],,,,
6,,,,
7,,,,
8,,,,
{16}1xp4[1:1],,,,
,,,,
8xq5[1:1],,,,
,,,,
{16},,,,
,,,,
,,,,
,,,,
{16}6h[1:1],,,,
,,,,
,,,,
,,,,
{16}4h[384:1],,,,5h[384:1]/3h[384:1],,,,6h[384:1]/4h[384:1],,,,8-4[8:1]/7h[384:1],,,,
{16}8b/2b-5[8:1],,,,
2/7,,,,
6V47[4:1],,,,
4,,3,,
{16}2-6[8:1]*-5[8:1],,,,
2,,,,
8-4[8:1],,,,
1,,,,
{16}3^8[8:1],,,,
7,,6^3[8:1],,
,,1,,
1qq3[8:3],,,,
{16}4,,,,
5,,,,
7^2[8:1]*^4[8:1],,,,
7,,,,
{16}3-8[8:1],,,,
7-4[8:1],,,,
2-5-1[4:1],,,,
5,,6,,
{16}7^4[8:1],,,,
8,,,,
2q6[8:1],,,,
4,,,,
{16}8h[2:1],,,,
6,,5,,
4>6[4:1],,,,
8bx,,,,
{16},,4V68-2[4:1],,
,,,,
3-5[8:1],,,,
3x,,,,
{16}7-4[8:1],,,,
7,,8^3[8:1],,
,,8,,
5-1[8:1],,,,
{16}5,,2-5[8:1],,
,,2,,
7pp3[8:3],,,,{8}2,3x>6[4:1],
{16},,,,,,,,
5xpp1[8:3],,,,{8}1,8x>5[4:1],
{16},,,,
,,,,
8w4[8:1],,,,
,,,,
{16}1-4[8:1]/7,,,,
18,,,,
6^3[8:1],,,,
2,,1,,
{16}8-3[8:1],,,,
7xv2[8:3],,7xp2[4:1],,
,,,,
,,,,
{16}1/8,,,,
2,,3,,
4-8[8:1],,,,
6,,,,
{16}7V13[4:1],,,,
3>5[4:1],,,,
5-1[8:1],,,,
4,,,,
{16}3>7[4:1],,,,
7V14[4:1],,,,
4-8[8:1],,,,
6,,,,
{16}7<3[4:1],,,,
3V51[4:1],,,,
1w5[8:1],,,,
,,,,
{16}2,,4,,
3,,3,,
6,,5,,
7,,7,,
{16}5<1[4:1],,,,
1>5[4:1],,,,
5-1[8:1],,,,
7,,,,
{16}8-4[8:1],,8,,
2,,,,
3-7[8:1],,3,,
5,,,,
{16}86,,,,
1/3h[4:1],,,,
4b,,2b/6b,,
8b,,,,
{8}7h[8:2]/8,1,2,3h[8:2]/4,5,6,7h[8:2],5,
3,2h[8:2],4,5,6h[8:2],5,4,3,
1>7[8:2],,7/1b,,1<3[8:2],,3/1b,,
8-4-2[8:2],,8b/E7f,,1-6-4[8:2],,1b/E3f,,
{16}1b,,,,3x,4,3,4,2x,5,2,5,1x,7,1,7,
2x,8,2,8,5x,6,5,6,3,2,1,8,5,6,7,8,
5-2[8:1],,5,,7-4[8:1],,7,,1-5[8:1],,1,,8,,8,,
4,,3,,26,,7,,18,,18,,7pp2[8:20]/2,,E4,E5,
{1}E6,,,
{8}E5h[1:3],,,,,,,,,,,,,,,,E1h[1:1],,,,,,,,,,,,4w8b[8:1],,,,
{16}2b/6b,,,,3x,6,4,5,3,6,4,5,3,,8bV64[8:2],,,,2,,1-5[8:1],,,,6-1[8:1]/1,,,,2,,3,,
{16}4^1[8:1],,,,
8,,7^4[8:1],,
,,8,,
8pp4[8:3],,,,
{16}5,,,,
7,,,,
1^4[8:1]*^6[8:1],,,,
1,,,,
{16}3^8[8:1],,,,
3/7^4[8:1],,,,
7/2-5-1[4:1],,,,
5,,6,,
{16}7^4[8:1],,,,
8,,,,
3qq5[16:4],,,,
4,,,,
{16}8h[2:1],,,,
6,,5,,
4>6[4:1],,,,
A8/D1f/A1,,,,
{16},,4V68-2[4:1],,
,,,,
3-8[8:1]*-5[8:1],,,,
3x,,,,
{16}7-4[8:1],,8,,
7,,8^3[8:1],,
6,,8,,
5-1[8:1],,4,,
{16}5,,2-5[8:1],,
8,,2,,
6pp2[8:3],,,,{8}1,2x<5[4:1],
{16}3,,,,
,,,,
4xpp1[8:3],,,,{8}1,8x>5[4:1],
{16}7,,,,
,,,,
8w4[8:1],,,,
,,,,
{16}1-4[8:1]/8-5[8:1],,,,
18,,,,
63,,63,,27,,27,,
1x^4[8:1]/8x,,,,1x/6x<3b[16:3],,,,6x/5xw1[8:1],,,,Cf,,,,
3-8[8:1]/7-3[8:1],,,,3/7-4[8:1],,,,7/2V48[8:2],,,,5,,6,,
{16}7-3[8:1]*-4[8:1],,,,
7,,,,
1q5[8:1],,,,
8,,,,
{16}6^1[8:1],,,,
2,,3^6[8:1],,
,,8,,
8pp6[8:3],,,,
{16}5,,,,
4,,,,
1^6[8:1]*^4[8:1],,,,
1,,,,
{16}7-2[8:1],,,,
7/3-7[8:1],,,,
3/6V48[4:1],,,,
1,,2,,
{16}3^6[8:1],,,,
1,,,,
7p4[8:2],,,,
5,,,,
{16}1h[2:1],,,,
3,,4,,
5<3b[4:1],,,,
A8/D1/A1/E1f,,,,
{16},,5V31-7[4:1],,
,,,,
6,,,,
5xh[8:2],,,,
{16}2b-5[8:1],,,,
2/8b,,1^6[8:1],,
3,,1,,
4-8[8:1],,5,,
{16}4,,7-4[8:1],,
1,,7,,
3h[8:2],,,,{8}7pp2[8:4],7x,
{16}E5f,,,,
,,,,
4h[8:2],,,,{8}3q6[8:4],3x,
{16}E1f,,,,
,,,,
1w5[8:1],,,,
,,,,
{8}37,4,65,7,53,2,71,8,
2,3,4q1[8:3],5^8[8:2],,,,,
{8}2-5[8:1]/6,,2,1qq7[8:1],,,3,4,
{8}5qq3[8:1],,6,,8qq6[8:1],,2,,
{8}1>4[8:1],,8,7,6^1[8:1],,5qq6[8:3],5x,
{8},7,,,7x/4x-1[8:1],,4/6,,
{8}7-4[8:1]/2x,,7,8pp2[8:1],,,6,5,
{8}4pp6[8:1],,3,,1pp3[8:1],,7,,
{8}8<5[8:1],,1,2,3^8[8:1],,4pp3[8:3],4x,
{8},2,,,1x/5x-1[8:1],,5/7,,
2b-5[8:1]/8,2,8,8,3-8[8:1],3,7,7,
2-5[8:1],2,8,8,1^6[8:1]*^4[8:1],,1,,
7-4[8:1],7,4,3,8-3[8:1],8,3,2,
7-4[8:1],7,4,3,8w4[8:1],,8,,
1-4[8:1],1,4,6,7-4[8:1],7,4,2,8-3[8:1],8,3,5,6-1[8:1],6,4,3,
8b/2b,3,3,1b/8b,7,1b/8b,{16}2,,8b,,
4,,21,,78,,6,,5xh[8:1],,4xh[8:1],,3xpp6qq3[8:36],,2x,,E1h[32:62],,
