&title=Suspicious
&artist=Rj Pasin
&first=-0.34
&des_5=AonlyZ
&lv_5=14
&des=AonlyZ
&inote_5=(135){4},6<3[4:7],{1},{4},{16}5,
,,6,
,,{8}7,{4}8qq8[4:3],,,,1>4[4:1],
,5h[4:1],
{16},,,,3,5<7[16:1],2,4-8[16:1],3,5,,4,,,,,,,,,3,
5<7[16:1],2,4-8[16:1],3,5,,4,,,7,6,
1,2,6,5,2,3>1[16:1],7,4-8[16:1],6,3,,4,,,,,,,,,7x,
6x,5x,4x,3x,2x,,5,,,4,6,
2,7,3,6,1x-6[16:1],8,3,6,1x-4[16:1],4,,5,{4}1x<6[16:1],
3/1x,{16}8x-3[16:1],1,6,3,8x-5[16:1],5,,4,{8}8x,{16}3,5,
2x,7,1,6,1x<6[16:1],8,3,5,1x>4[16:1],3,,5,{4}1x-5[16:1],
4/1x,{16}8x<5[16:1],1,6,4,8x>3[16:1],3,,4,{8}8x,{16}7x,6x,
5x,4x,3x,2x,6x,4>2[16:1],8,1-5[16:1],5x,4,,1,{8}2x,{16}6,4,
1x/8x,2x,3x,4x,6x,5-1[16:1],7,8<6[16:1],6x,5,,8,{8}5x,{16}6,4,
6x,3,7,7,3x,5<7[16:1],1,8-4[16:1],4x,5,,8,{8}7x,{16}3,5,
1x/2x,8x,7x,6x,4x,5-1[16:1],2,1w5[32:3],4x,5,,,,,6x,7x,
8x,1x,2x,3x,6xh[16:1],4,5,3,5xh[16:1],4,,3,{4}4xh[16:1],
3xh[16:1],{16}2xh[16:1],8,1,7,1xh[16:1],8,,7,{4}8xh[16:1],
7xh[16:1],{16}6xh[16:1],4,5,4,5xh[16:1],3,,6,{4}4xh[16:1],
3xh[16:1],{16}2xh[16:1],3,8,2,1xh[16:1],8,,2,{4}8xh[16:1],
7xh[16:1],{16}6xh[16:1]
,4-1[16:1],5,3,5xh[16:1],4,,6,{8}4xh[16:1],{16}6,7,
8/3xh[16:1],1,2,3,2xh[16:1],8-5[16:1],1,7,1xh[16:1],8,,1,{8}8xh[16:1],{16}2,3,
4/7xh[16:1],5,6,7,6xh[16:1],3>1[16:1],5,4,5xh[16:1],3,,6,{8}4xh[16:1],{16}1,8,
7/3xh[16:1],6,5,4,2xh[16:1],3,8,2,1xh[16:1],8,,2,{8}8xh[16:1],{16}5,4,
3/7xh[16:1],2,1,8,{4}6b>7b[4:3],,,,3h[2:1],
,4h[2:1],
,5h[2:1],,,,6h[4:1]/5h[4:1],
,5h[4:1]/4h[4:1],
{16},,,,3/4h[16:7],2,1,8,7,6,,6,,,,,,,,,4/5h[16:7],
3,2,1,8,7,,7,,,7,8,
1,2,3,4,5/6h[16:7],4,3,2,1,8,,8,,,,,,,,,6/7h[16:7],
5,4,3,2,1,,1,,,5,3,
7,2,6,3,8x-3[16:1],1,6,3,8x-5[16:1],5,,4,{4}8x>3[16:1],
6/8x,{16}1x-6[16:1],8,3,6,1x-4[16:1],4,,5,{8}1x,{16}6,4,
7x,2,8,3,8x>3[16:1],1,6,4,8x<5[16:1],6,,4,{4}8x-4[16:1],
5/8x,{16}1x>4[16:1],8,3,5,1x<6[16:1],6,,5,{8}1x,{16}2x,3x,
{48}4,5,6,7,8,1,{8}2,{16}3x,5<7[16:1],1,8q4[16:1],4x,5,,8,{8}7x,{16}3,5,
1x,7x,2x,6x,3x,4q8[16:1],2,1>3[16:1],3x,4,,1,{8}4x,{16}3,5,
3x,7,2,2,6x,4>2[16:1],8,1p5[16:1],5x,4,,1,{8}2x,{16}6,4,
7x,1x,8x,3x,5x,4-8[16:1],7,8w4[32:3],5x,4,,,,,3x,2x,
{48}1,8,7,6,5,4,{8}3,{16}3xh[16:1],5,4,6,4xh[16:1],5,,6,{8}5xh[16:1],{32}1,2,{16}3,
{8}6xh[16:1],{32}2,3,{16}4,7xh[16:1],1,8,2,8xh[16:1],1,,2,{8}1xh[16:1],{32}5,6,{16}7,
{8}2xh[16:1],{32}6,7,{16}8,3xh[16:1],5,4,5,4xh[16:1],6,,3,{8}5xh[16:1],{32}1,2,{16}3,
{8}6xh[16:1],{32}2,3,{16}4,7xh[16:1],6,1,7,8xh[16:1],1,,7,{8}1xh[16:1],{32}5,6,{16}7,
{8}2xh[16:1],{32}6,7,{16}8,3xh[16:1],5-8[16:1],4,6,4xh[16:1],5,,3,{8}5xh[16:1],{16}3,2,
1/6xh[16:1],8,7,6,7xh[16:1],1-4[16:1],8,2,8xh[16:1],1,,8,{8}1xh[16:1],{16}7,6,
5/2xh[16:1],4,3,2,3xh[16:1],6<8[16:1],4,5,4xh[16:1],6,,3,{8}5xh[16:1],{16}8,1,
2/6xh[16:1],3,4,5,7xh[16:1],6,1,7,8xh[16:1],1,,7,{8}1xh[16:1],{16}5x,6x,
{32}7,8,1,2,3,4bx,5bx/2,6bx/3q3[32:121],{4}4/7bxq7[4:15],,,,,,,,,,,,
,
,,,
,
E
