&title=FUNK TIME!!!
&artist=raynodon; Vanxia
&first=0.01
&des=Deer on the Skateboard
&lv_5=14
&inote_1=
&inote_5=(180)
{16}
6h[4:3]/4,,,,B4,,,,,,,,E4,,,,
1h[4:3]/8,,7,,,,,,,,,,B7,,,,
5h[4:3]/3,,,,B3,,E3,,,,,,B2,,,,
1h[4:3]/7,,6,,,,,,,,,,B5,,,,
4h[4:3]/3,,,,B3,,E3,,,,,,B2,,,,
1h[4:3]/5,,6,,,,,,,,,,B7,,,,
5h[4:3]/3,,,,B3,,E3,,,,,,B2,,,,
1hx[4:3]/8hx[4:2],,,,,,,,,,,,8xw4[8:1],,,,
8b,,,,
26,,7,,8/1<6[8:1],,,,12,,3-8[8:1],,5,,4x-7[8:1]/3x,,,,4,,1hx[4:1],,,,8b,,,,
2hx[4:1]/6hx[4:1],,,,,,,,7/8>3[8:1],,,,87,,6-1[8:1],,4,,6x/5x-2[8:1],,,,5,,8hx[4:1],,,,1b,,,,
7h[4:3]/3b,,,,B8/E1,,,,B2/E3,,,,E5/B4,,,,
2h[4:3]/6b,,,,B1/E1,,,,B7/E7,,,,E5/B5,,,,
1b/7b,,,,28,,,,3/1h[4:1],,,,
{32}
4x,5x,6x,7x,8x,1x,2x,3x,
{16}
4xh[4:2]/8b,,,,,,,,
8,7,6,5,8-4[8:1],1,2,3,
8b/Cf,,,,2-6[8:1]/6,,7,,28,,,,7V51[4:1]/5,,4,,7/3,,2xV48[4:1],,,,27,,6hx[4:1],,,,1b,,7,,8x/2hx[8:2],,,,6h[8:1],,5,,3h[8:1],,4,,7h[8:1],,6,,
1,2,3,4,1,8,7,6,3,4,2,5,1x-5[8:1],,,,1b/8b,,,,
7-3[8:1]/3,,2,,71,,,,2V48[4:1]/4,,5,,2/6,,7xV51[4:1],,,,72,,3hx[4:1],,,,8b,,2,,
1hx[8:2]/7x,,,,6h[8:1],,5,,3h[8:1],,4,,7h[8:1],,6,,1,2,3,4,1,8,7,6,
3,4,3,4,2,5,2,5,1x-5[8:1],,,,1b/Cf/8,,7,,6h[16:1]/4h[16:1],,6h[16:1]/4h[16:1],,
5h[16:1]/3V15[4:1],,5h[16:1]/3,,3/6,,6xV47[4:1],,,,36,,2hx[4:1],,,,8b,,1,,
2x/7xh[8:2],,,,3h[8:1],,4,,6h[8:1],,5,,2h[8:1],,3,,
8,7,6,5,8,1,2,3,6,5,7,4,8x-4[8:1],,,,8b/1b,,,,3h[16:1]/5h[16:1],,3h[16:1]/5h[16:1],,
2h[16:1]/6h[16:1],,2h[16:1]/6h[16:1],,7V51[4:1]/1,,17,,17,,2xV48[4:1],,,,27,,6xh[4:1],,,,1b,,7,,8xh[8:2]/2x,,,,3h[8:1],,4,,6h[8:1],,5,,2h[8:1],,3,,8,7,6,5,8,1,2,3,6,5,6,5,7,4,7,4,8x-4[8:1],,,,8b/Cf/1b,,2,,3-8[8:1]/5,,,4,3,,6,,1/7-5[8:1],,1,,7-3[8:1]/1,,1,,7/1-5[8:1],,1,,1x,,,,
37,,,,46,,3,,2/8-5[8:1],,,1,8,,3,,4,,3x/5x,,6,,7x/3x,,2-6[8:1],,1,,2/8h[4:1],,,,
1x-5[8:1],,,,1b/8b,,7,,6-1[8:1]/4,,,5,6,,3,,8/2-4[8:1],,8,,2-6[8:1]/8,,8,,2/8-4[8:1],,8,,8x,,,,26,,,,1,8,2,7,1b,,,2b/8b,,,3b>6[8:5]/7b,,,,5x,,5x,,5x,,4x,,4x,,4x,,4x,,
8x-4[8:1]/4x,,,,8b/Cf/1b,,2,,3-8[8:1]/5,,,4,3,,6,,1/7-5[8:1],,1,,7-3[8:1]/1,,1,,7/1-4[8:1]*-6[8:1],,1,,1x,,,,
37,,,,46,,3,,2/8-5[8:1],,,1,8,,2,,4,,3x/5x,,6,,7x/3x,,2-6[8:1],,1,,2/8h[4:1],,,,
1x-5[8:1],,,,1b/8b,,7,,6-1[8:1]/4,,,5,6,,3,,8/2-4[8:1],,8,,2-6[8:1]/8,,8,,2/8-5[8:1]*-3[8:1],,8,,8x,,,,
62,,,,1,7,2,8,1b,,,2hx[16:1]/8hx[16:1],,,3hx[16:1]/7hx[16:1],,
4b/6b,,,3hx[16:1]/5hx[16:1],,,2hx[16:1]/6hx[16:1],,
1b/7b,,,3b/6b,,,2b/8b,,
7b/3h[4:4],,,,8,,,E8,B7,,,,6,,,E6,B5,,,,2/7h[4:3],,,E2,B1,,,,4,,,E4,B3,,,,
7/1h[4:3],,,E7,B6,,,,5,,,E5,B4,,,,1/6h[4:3],,,E1,B8,,,,3,,,E3,B2,,,,
7h[4:1],,,5,5,,,,6h[4:1],,,4,4,,,,
2h[4:1],,,5,5,,,,3h[4:1],,,6,6,,,,4h[4:1],,,7,7,,,,28,,,,7h[8:3]/3b,,3,,2,,1,,
8x/7x,,8,7,1,6,2,5,3>8[4:1],,,,8pp6[4:2],,,,7,,,,6>2[16:6],,,,8hx[4:1],,,,,,,,8,1,8,1,7,2,7,2,
6<1[4:1],,,,1qq3[4:2],,,,2,,,,3<7[16:6],,,,1hx[4:1],,,,,,,,1,8,1,8,2,7,3,6,
4>1[4:1],,,,1pp5[4:2],,,,7,,,,5V37[4:2],,,,6,,,,7V15[4:2],,,,6,,,,5<4[1:1],,,,7h[4:1],,,,,,,,5,,,,4qq4[4:3]*pp4[4:3],,,,,,,,,,,,,,,,,,,,
26,,,,1h[16:3]/8,,,7,6x/2x,,,,5h[16:3]/3,,,4,6x/3x,,,,2h[16:3]/1,,,8,7x/3x,,6,,45,,3,,2/1,,,,8h[16:3]/1,,,2,3x/7x,,,,4h[16:3]/6,,,5,3x/6x,,,,7h[16:3]/8,,,1,2x/6x,,3,,54,,6,,7/8,,,,1h[16:3]/8,,,7,2x/6x,,3,,45,,6,,
8b/3b,,,7b/4b,,,2b/6b,,,4b/8b,,,2,1,2,1,38,,6,5,6,,18,,3,4,3,,27,,48,,1h[16:1]/5h[16:1],,1h[16:1]/5h[16:1],,4h[16:1]/8h[16:1],,4h[16:1]/8h[16:1],,3-8[8:1]/7-4[8:1],,37,,3b/7b/Cf,,,,1h[8:1],,6,,8,7h[16:2],,2x,,13,4,5,6p4[4:2],7,8,1,2h[4:2],,,,,,,,,,,,5,3,5,3,5h[8:1],,2,,4,3h[16:2],,6x,,71,6,5,4q5[4:2],3,2,1,8h[4:2],
,,,,,,,,,,,,,8,1,
7h[8:1]/2,,4,,6,5,,8h[8:1]
,,2,1,3,8,4,7,5,6h[8:1],,8,,7,1,8,2h[8:1],,5,,3,4,,2,4,3,5,4,6,5,7h[8:1],,2,,8,1,7,2,6,3h[8:2],,,,5,5,4,5h[8:1],,2h[8:1],,5,6,7,81,2,3,4,5hx[4:1]/6hx[4:1],,,,,,,56,56,,,,45,,,,
E8/B7/E7,,,,E2/B2/E3,,,,B5,,B4,,E8/B7/E7/E2/B2/E3,,,,
4hx[4:1]/3hx[4:1],,,,,,,43,43,,,,54,,,,
E2/B2/E3,,,,E8/B7/E7,,,,B4,,B5,,E2/B2/E3/E8/B7/E7,,,,1x/8x,,,,1,8,2,8,1,,8,1,7,1,8,,1b/8b,,,7h[16:1],1b,,,6h[16:1],1b,,,5h[16:1],1b,,,,
{12}
2,3,4,7,6,5,
1,2,3,8,7,6,
1xh[8:1],5,5,1xh[8:1],6,6,1xh[8:1],7,7,1xw5[8:1],8,8,
{16}
1b/Cf,,,,,,,,,,,,,,,,
7b/2b,,,,1-4[8:1]/8,,7,,61,,,7,5h[8:1],,6,,7-4[8:1],,4-8[8:1],,37,,2,,1s5[8:1]*-4[8:1],,1,,1b,,,,
3x/6x,,,,8-5[8:1]/1,,2,,38,,,2,4h[8:1],,3,,
2>5[8:1],,1,,2/7-4[8:1],,8,,1w5[8:1]/7,,1,,1b,,,,
7x/3x,,,,1-4[8:1]/8,,7,,61,,,7,5h[8:1],,6,,7-4[8:1],,4-8[8:1],,37,,2,,1v6[8:1]*>4[8:1],,1,,1b,,,,7hx[4:1]/5x,,,,
4,6,3,5,2b,,,1b/8b,,,4b/6b<3[8:5],,,,
4x,,4x,,4x,,5x,,5x,,5x,,5x,,
2b/7b,,,,8-5[8:1]/1,,2,,38,,,2,4h[8:1],,3,,2-5[8:1],,5-1[8:1],,62,,7,,8z4[8:1]*-4[8:1],,8,,8b,,,,
6x/3x,,,,1-4[8:1]/8,,7,,61,,,7,5h[8:1],,6,,
7<4[8:1],,8,,7/2-5[8:1],,1,,8w4[8:1]/2,,8,,8b,,,,
2x/6x,,,,8-5[8:1]/1,,2,,38,,,2,4h[8:1],,3,,2-5[8:1],,5-1[8:1],,62,,7,,8v3[8:1]*<5[8:1],,8,,8b,,,,2hx[4:1]/4x,,,,5,3,6,4,7b,,,8b/1b,,,6hx[8:9]/Chf[8:9],,,,,,,,,,,,,,,,,,,,,,
1,8,3,4,2,6,5,7,2-6[8:1],1,3,8,2b,,,,
7,5,7,4,7,3,7,2,7-3[8:1],1,7,8,7b,,,,
2,4,3,5,1,8,2,7,3qq5[8:3]*qq4[8:3],6,4,5,3b,,,,,,,,,7,8,6,
{32}
1x,2x,3x,4x,5x-8[8:1],6x,7x,8x,
{16}
1hx[8:1],,5x,,2,1,3,8,2,1,3,8,4,7,5,6,4b,3,2,1,7b,6,5,4,8b,1,2,3,8b,7,6,5,
3xh[8:1],,6,5,8xh[8:1],,3,4,2xh[8:1],,5,4,7xh[8:1],,1,8,2b/7b,,1x,8x,1x,,1x,,1xw5[8:1],,,,1b,,,,3b/7b,,,,
3,4,1,8,5,6,4,7h[16:1],
{24}
3x-7[8:1],4x,5x,6x,7x,8x,
{16}
1hx[8:1]/3b,,,,
8,1,8,1,7,2,7,2,
{24}
6x-2[8:1],5x,4x,3x,2x,1x,
{16}
8hx[8:1]/6b,,,,
1,8,3,4,2,6,5,7,2,1,3,8,2b,3,4,5,
1b,8,7,6,1b,2,3,4,8b,7,6,5,
3xh[8:1],,6,5,8xh[8:1],,3,4,2xh[8:1],,5,4,7xh[8:1],,1,8,2b/7b,,,
1b/6b,,,3b/8b,,,1b/5b,,,
3,4,3,4,25,,7,8,7,,16,,3,4,3,,25,,37,,
2h[16:1]/6h[16:1],,2h[16:1]/6h[16:1],,1h[16:1]/5h[16:1],,1h[16:1]/5h[16:1],,8h[16:1]/4h[16:1],,8h[16:1]/4h[16:1]
,,7x-2[8:1]/3x-6[8:1],,3x/7x,,3b/7b/Cf/E7/E3,
