&title=水の星へ愛をこめて (1コーラス)
&artist=森口博子
&first=-0
&des=Starlink-Yuki
&clock_count=4
&lv_5=12+
&inote_5=(134){1},
{8}E2,E8,{4}3/B6,,2/B6,
,1/B6,,1/E8,{8}8/B1,7/B2,{4}6/B3,,5/B4,
{8},E3/Ch[8:3],,,{16}E2,,B3,6/B4,,E2,E3f,,
{8}6b,,4qq1[2:1],5,4,,7,,
5,4h[8:1]/8^3[4:1],,,6,,6v1[4:1],,
6/3,,2,3,3/1qq5[2:1],,1/E3,E4,
E4,4,3,3-8^1-4[2:1]/6h[4:1],,3,7b,,
6-8^1-5[2:1],,6/3h[8:1],,2,2,1q4[2:1]*p6[2:1],1,
1,,Cf,,,,B3/B6,,
{8}1/C,1,2/C,3,,4,C,E2,
,E7,E3,E6,E5/2,2,1b/B8/B7,B8/B7,
1^2-4[4:1],,1/B8,7,,6,6v3[4:1]/E2,,
6/1pp5[2:1],,1/8,8,7,7,6h[2:1]/B5,,
,,E4,,,,E3,5,
5qq2[2:1],6h[8:1],,,,,E7,,
{4}7h[8:1],{8}1h[8:1]/E6,,,6,7/C,7^4[4:1],
,4^1[4:1],1,1^6[4:1],,,C,,
4h[4:1],6h[4:1],,3h[4:1],,,C,1,
1,8h[8:1],C,1/2,3/8,,7h[4:1]/4,,
4b,6,4h[4:1]/5,,6,3h[4:1],6,6,
7qq4[2:1]/3,3,3/7,,,2,2/A4,1V35[4:1],
,1^7-5[4:1],,,,,C/3,3,
2h[4:1]/7,7,8V27[4:1],,3h[4:1],,,6,
{4}5/3,5/2,5/1,{8}6V47[4:1]/8,6,
3V14[4:1],3,3,,7^8-5[4:1],,3,2,
1-4[4:1],,6,7,8-5[4:1],,8/1h[4:1],,
{8},5/1,5/1,5/2,5/3,5/4,5/4,5h[4:1]/3b,
,,,,2b/7v5-8[2:1],,7/1b,,
1-4v2[2:1],2,1,,7,7,6,6,
5h[4:1]/2,,C,,4,4,3qq8[2:1]/5h[8:1],,
3,6,6,5,5,5/1,5/2,5/3,
5pp1[2:1]/4h[8:1],,5,,4,4,3,2,
1^4[4:1]/8h[16:1],1h[8:1],,8,7,6,4/5h[4:1],4,
3bV52[4:1],,6/3,6,7-2-8[4:1],,7/3,3,
4,4,5qq1[2:1]/7,7,6,6,7,,
6,6,7h[8:1]/E2,,3,3,6/2h[4:1],,
5h[16:1],3^4V25[2:1],B8,B7,,,B8,B7f,
,5b,,4b/6h[4:1],3>7[4:1],3,7>3[4:1]/3,,
,,C,,3,3,2^3V14[2:1]/5,5,
2,,C,,6,,6,6,
7h[4:1]/4,,3,4/6V85[4:1],,,3,3,
2,2,1/6-1[4:1],2/5,4/3h[8:1],,4h[8:1],,
4/8,4h[8:1]/7v4^7[4:1],,,3,3,2v4-1[2:1],3,
2/5,,5,,6,6,7h[4:1]/1-4[4:1],,
1-6[4:1],,A4,B3,2h[4:1],,5,5,
6/1h[4:1],6,7,7/1pp5[2:1],8,8/E3/B2/B3,E3/B2/B3,,
{8}6b,,4qq1[2:1],5,4,,7,,
5,4h[8:1]/8^3[4:1],,,6,,6v1[4:1],,
6/3,,2,3,3/1qq5[2:1],,1/E3,E4,
E4,4,3,3-8^1-4[2:1]/6h[4:1],,3,7b,,
5b,,5pp8[2:1],4,5,,2,,
4,5h[8:1]/1^6[4:1],,,3,,3v8[4:1],,
3/6,,7,6,6/8pp4[2:1],,8/E7,E6,
E6,5,6,6-1^8-5[2:1]/3h[4:1],,6,2b,,
3b,,3,2/6h[4:1],,2,1/7-3-5[4:1],,
1,1,2V83[4:1],,2/5V74[4:1],6,5,,
3b,3,1-3^4-8>4[1:2]/5-7^8-4<8[1:2],
