&title=ATTITUDE
&artist=aespa
&first=0
&des=HY
&lv_5=13+
&des_5=HY
&inote_5=
(150){4},{8},,,,,,,,,,,,,B7/B6/E7f/2x<6[1:1]*>6[1:1],
,,,,,,,,,,,7h[4:1],
,6h[4:1],,4h[1:1],
,,,,,,,5x<1[4:3],
{4},,,{16},,{48}2x,3x,{12}4xh[3:4],
{1},{4},{16},,{8}5x/7x,
,6x/3x,,4x/2xh[4:1],
,,,5/B3/B2,6,7h[4:1],{32},,,,5x,4x,,,,,,,{8}3,
B5/E6,B3/B2,,8/1,{48},,,,,,7x,6x,{12}5xh[24:29],
{1},{16},,{8}3,
3,4/1,,2/5,,4/7h[4:1],
,,,1/8h[16:3],{16},2h[16:3],,,{8}3,8x/4h[16:3],
{16},5h[16:3],,,{8}6,7h[4:1],,B2/B3/D3f,,5bx<7-4[2:1],
,,,B2/B1/E3,,3,3,5/2>4-1[2:1],
4,2,,8b,8b,8b,,6/4>2-5[2:1],
,,7,E7/B8/B7,,6,6,4/7>1-5[8:3],
7,7,,2,3,4,,4/6bx<2v4[2:1],
,,{4}3,{8},B3/E3,6,4/6<1V75[2:1],
{16},3,{8}6,,B2/A2,,B4/E4,{16},,5/3>1qq7[0.4##0.8],,
,,,,{4}4,{8},5x,5x,5xh[4:1],
4,4,,4h[4:1],6,6,,3h[4:1]/E6/B5,
,E8/B8,,2/E6/B5,2,3/E8/B8,3,4/E6/B5,
,3/E8/B8,2,1/E6/B5,,3/E8/B8,,2h[4:1]/D6/E6,
,D8/E8,,3/D6/E6,3,2/D8/E8,2,1/D6/E6,
,1/D8/E8,2,3/D6/E6,,4/D8/E8,,E4/B4/5-7-1-7-5[1:1],
,E2/B1,,E4/B4,,E2/B1,,E4/B4,
,E2/B1,,E4/B4,6,6/B1/B2,5,5h[4:1]/B3/E4,
,B2/E2,,E4/D4,7,6/E2/D2,6,E5/E6/E4/Cfh[1:1],
,,,,,,,B2/B3/B7/B6,
{32},,,,8x,7x,{16}6x,{32}2x,3x,{16}4x,{32}7x,6x,{16}5x,{32}1x,2x,{16}3x,{32}6x,5x,{16}4x,{32}8x,1x,{16}2x,{8}7bx,
7,6/4,6/4,3/B6/B5,3,7/1,1/7,{32}6x/B7/B8,5x,{16}4x,
{32}8x,1x,{16}2x,{32}7x,6x,{16}5x,{32}1x,2x,{16}3x,{32}8bx,7x,{16}6x,{32}2x,3x,{16}4x,{8}5,5,4/2,
4/2,1/B6/B5,1,6/8,8/6,7/B1/B2,7,B4/E4/8<5[4:1],
B2,E1,,1h[8:1],,2/5,3,4/7,
5,6/1,7,8/2,7/3,4/6h[8:1],,5bx/B7/B8,
,6/4>1[4:1],,4/7,,8,8,7x/2h[4:1],
,4,5,6h[4:1],,B2/B3,{16},,4,4,
6,5,{8}7,2,2/8,3,4/7h[8:1],,8x,
8x/5,8x/4,{16}3,3,{8}7,1/8,2/7,3/6,5/4,
{16}6,5,,7,{8}8,2/1,3/4,5/6h[8:1],{16},,,,6,
6,4,5,{8}3,2/5,4/7,8/2h[8:1],,A8/E8,
1h[8:1],2h[8:1],3h[8:1],4h[8:1],5h[8:1],6h[8:1],{4}7,
{8}8h[8:1],1,,2/5,3/6,4/7,3/6,7x-5[16:1]/2x-4[16:1],
,,,6x-8[16:1]/3x-1[16:1],,,,1bx-7-3-5b[2:1]/8bx-2-6-4b[2:1],
,,,,,,,4x<4V68V24[2:3]/5x>5V31V75[2:3],
,,,,,,,,,,,,,,,E6/B5/B4/E4/A5/A4/D5/B3/B6/E5f/D6/D4/Cfh[2:1],
,,,1bx,,1x,8x,3/8<6V82[8:3],
3,8,4,5x,,3,5/3,{48}7x/4>1>4[8:3],E7,,,,,,,,,,,{8}4,
5,{48}B8,B7,{12}E7,{24},,,{8}6,6,5/7,
4/7,3/B7/B8,2,1/8,2,1/8,7,6/3b-5-1[4:1],
5,3,{48},,,,,,6x,7x,,,,,,,,,,,{8}4/D7/A7/D8,3,2/7,
6/2,5/B2/B1,4,3/6,4,5h[4:1],,6b<8q4b[4:1],
,6,,6,,4/5,6/3,7/2,
,E8,E2,C,,B5/B4,
E
