&title=シャイン
&artist=宮野真守
&first=1.135
&des=Feel me…
&lv_5=13
&inote_5=(134){16}
4x-1[16:1]*-1[16:1],,,4x-7[16:1]b,,,4x-8[8:3],,
,,,,,,,,
5x-8[16:1]*-8[16:1],,,5x-2[16:1],,,5x-1[8:3]b,,
,,,,,,,,
4b<3[4:3],,,,,,,,,,,,,,,,
6b>7[4:3],,,,,,,,,,,,,,,,
2b>1[4:3],,,,,,,,,,,,,,,,
5xh[2:1],,,,,,E4,,2xh[2:1],,,,,,E6,,
7xh[4:1],,,,4pp1-3[8:7],,A6h[8:8]/D6h[8:8]/A5h[8:8],,,,,,,,,,
,,,,,,,,,,E8/A7/D7/E6/A6,,,B1/A2/B2/B3,,,
4bxqq5[1:1]/6bxpp4[1:1]b,,,,,,,,,,,,,,,,
,,,,,,,,,,4x/B8/B7/E8,,,5x/B2/B1/E2,,,
6xh[4:3]/5,,,,5,,,,5,,,,4x,5x,4x,5x,
3xh[8:3],,,1x,,,7x,,6xh[8:3]/5x,,,8x,,,2x,,
Ch[8:11]/B6/B7/E7/B2/B3/E3,,,,,,,,,,,,,,,,
,,,,,,,,,,7b-3[8:1]b/1-5[8:1],,,,7/1b,,
,,6,6,5,,7,,4,,5,5h[16:11],,,B2,,
B6,,B8,,B4,,B1,,,,4,,4,,3>7>3[2:1]/5,,
,,7,,6,,5,5h[16:5],,,,,,,6pp1[16:5]/4,,
,,2,,3,,4,4,,,2b-6[8:1]b/8-4[8:1],,,,2/8b,,
,,3,3,4,,2,,5,,4,4h[16:11],,,B7,,
B3,,B1,,B5,,B8,,,,5,,5,,6pp4^1[2:1]/4,,
,,4,,3,,2,2h[16:5],,,,,,,3qq5^8[2:1]/5,,
,,5,,6,,7,7h[16:5],,,,,,,2xh[8:3]/6x,,
,,4,,8,,7xh[8:3]/3x,,,,5,,1,,2xh[8:7]/6b-8-5-2-4[8:5]b,,
,,,,,,,,,,,,,,,,
3h[8:3]/5,,,,2,,2^7[8:1],,,,4V25[4:1],,,,5-1[8:1],,
,,E8/A8/D8,,,,6,6,2h[8:1],,4h[8:1],,3h[8:1],,5,,
2x/6x,,,,,,3,3,4h[8:1],,2h[8:1],,5h[8:1],,4,4qq5[16:4],
,,6,,7,,8,8h[16:5],,,,,C,,,,
6h[8:3]/4,,,,7,,7^2[8:1],,,,5V74[4:1],,,,4-8[8:1],,
,,E2/A1/D2,,,,3,3,7h[8:1],,5h[8:1],,6h[8:1],,4,,
7^6-4[8:1]/3,,,,2,,1,,7^6-4[8:1]/8,,,,2,,1,,
78,,6,5,,3,4,,2^3-5[8:1]/5,,1,,,,8,,
1/2^5[8:1],,,,7,,8,,1/2^5[8:1],,,,7,,8,,
12,,3,4,,6,5,,7^4[8:1]/4,,8,,,,3,,
2-5[8:1]/6,,6,,26,,6,,1q5[8:1]/6,,6,,16,,6,,
8q5[8:1]/6,,6,,86,,6,,7q5[8:1]/6,,6,,76,,6,,
78,,71,,72,,73,,6,4,6,4,6,5,6,5,
7,7,4,4,5,5,2,2,{32}A8,B8,C,B4,A2,E3,E4,A4,A7,E7,E6,A5,A1,B1,C,B5,{16}
8xp2[4:1]b*v5^6[4:1]b,,,,,,,,,,,,,,,,
3xV52[16:3]/4x,,,,8,,8^5[8:1],,,,8/1h[4:1],,,,4bq7[16:5],,
,,3x,,2x,,1x,,8x-4-2[32:7],,,,87,,6,,
5V73[32:7],,,,1,,1s5[4:1],,,,14,,6,,7v6-4[4:1]b,,
,,B2h[8:1]/A2h[8:1]/E3h[4:1]/D3h[4:1],,,,,,,,34,,45,,56,,
7/4V63[16:3],,,,8,,8-3[8:1],,,,2h[4:1]/8,,,,4bq7[16:5],,
,,8x,,1x,,2x,,3xh[4:1],,,,B1/B8/E1,,,,
2-6-4[32:7]/6,,,,7,,7^2[8:1],,,,7/3h[4:1],,,,4-8[8:1],,
,,1,,1h[16:10],,,,B7/E8/B8,,,B6/B5/E6,,,4x-1-3-8[16:5]*-7-5-8[16:5],,
,,,,,,,,,,71,,71,,62,,
5x/3xV14[16:3],,,,7,,7s3[4:1],,,,73,,4,,5v4-1[4:1]b,,
,,B7h[8:1]/A7h[8:1]/E7h[4:1]/D7h[4:1],,,,,,,,8-5[8:1]/2,,7,,8x/6xh[4:1],,
,,4-8[8:1],,3,,4x/2xh[4:1],,,,7^2[8:1],,6,,7x/5xh[4:1],,
,,4,,2bqq5[16:5]b/7bpp4[16:5],,,,,,,,,,,,
27,,5,4,6,3,7,,{32}8bx/2bx,3x,4x,,,,1bx/7bx,6x,5x,,,,8bx/2bx,3x,4x,5x,
6x,7x,8x,1x,2x,3x,4x,5x,Cf,,,,,,,,
1bx/7bx,6x,5x,,,,8bx/2bx,3x,4x,,,,1bx/7bx,6x,5x,4x,
3x,2x,1x,8x,7x,6x,5x,4x,Cf,,,,,,,,
8bx/2bx,3x,4x,,,,1bx/7bx,6x,5x,,,,8bx/1bx,7x/2x,6x/3xqq5[32:26]b,5xpp4[32:25]/4x,{1}
,
,{8}
B7h[8:8]/B6h[8:8]/E7h[8:8],,,B2h[8:5]/B3h[8:5]/E3h[8:5],,,Ch[4:1],,
,,,,,,,,
E
