&title=BlazinG AIR
&artist=kanone
&first=0.07
&lv_5=14
&des_5=Statue
&inote_5=
(150){4},,,,{16}2/4,
{8},{16}3/5,{8},6/4,{16},7/5,{8},4/5,{16}4,5,
3/6,{8},{16}2/4,{8},5/7,{16},2/6,{8},7/3,{16}5,4,
6/3,{8},{16}7/5,{8},6/4,{16},3/5,{8},2/4,{16}4,5,
3/6,{8},{16}7/2,{8},1/8,{16}3,4,1,8,5,6,1,8,
7/2,{8},{16}6/8,{8},1/7,{16},2/8,{8},3/1,{16}8,1,
7/2,{8},{16}6/8,{8},1/3,{16},6/2,{8},3/7,{16}1,8,
2/7,{8},{16}3/1,{8},6/8,{16},7/2,{8},6/3,{16}5,4,
{4}6h[2:1]/3h[2:1],{2},{4}2b/7b,
{16}2,4,3,7,5,6,2,4,3,7,5,6,8,7,1,8,
2,1,4,5,8,7,4,5,2,1,3,5,4,7,5,6,
2,4,3,7,5,6,2,4,3,7,5,6,8,7,1,8,
2,1,4,5,8,7,4,5,2,1,3,5,4,7,5,6,
1,3,2,8,6,7,1,3,2,8,6,7,5,6,4,5,
3,4,1,8,5,6,1,8,3,4,2,8,1,7,5,6,
1,3,2,8,6,7,1,3,2,8,6,7,5,6,4,5,
3,4,1,8,5,6,1,8,3,4,2,8,1,7,5,6,
{8}2v5[8:1],5V31[8:1],2,7-4[8:1],6,{16}1,1,{8},2,
7v4[8:1],4V68[8:1],7,2-5[8:1],3,{16}8,8,{8},3,
8-4[8:1],4-6[8:1],,2,1-3[8:1],{16}7,7,{8},8,
7v4[8:1],4q8[8:1],{4},2h[8:1],{16}1,2,8,3,
{8}7v4[8:1],4V68[8:1],7,2-5[8:1],3,{16}8,8,{8},7,
2v5[8:1],5V31[8:1],2,7-4[8:1],6,{16}1,1,{8},6,
1-5[8:1],5-3[8:1],,7,8-6[8:1],{16}2,2,{8},1,
2v5[8:1],5p1[8:1],{4},{16}7,7,1,1,8,8,2,2,
{8}8,8-5[8:1],1,8,{16}2,2,{8}7-4[8:1],1,{16}7,2,
{8}2,6-3[8:1],1,6,{16}2,2,{8}7-4[8:1],1,{16}7,2,
{8}2,8-5[8:1],1,{16}8,2,{8}2,{16}7,1,6,2,5,3,
4,2,8,1,7,5,6,4,5,3,4,2,7,1,{8}8,
7/1,1-4[8:1],8,1,{16}7,7,{8}2-5[8:1],8,{16}2,7,
{8}7,3-6[8:1],8,3,{16}7,7,{8}2-5[8:1],8,{16}2,7,
{8}7,1-4[8:1],8,{16}1,7,{8}7,{16}2,8,3,7,4,6,
5,7,1,8,2,4,3,5,4,6,5,7,{4}2>6[4:1],
{8}2/6-1-5-2[2:1],{4},{8}7x,{4},6<1[4:1],
{2}1-4-8-5[2:1],{4}2x,{8}3,4,
3/5,6/4,3/5,4/6,2-4[32:3]/5-1[32:3],7/4,{4}2/5,
{16}2,1,{8},3/8,{16}5,6,{4}5,7/3V57[4:1],
{8}3/7-1-5-2[2:1],{4},{8}6x,{4},6-8-4[4:1],
{8}6/2,3,{4}3h[8:1],{24}3,4,3,4,{12},{24}6,5,6,5,{12},{8}2-4[8:1],
7-5[8:1],2-5[8:1],7-4[8:1],2,7,{4}3xh[16:1],
{8}2/4,1/5,{16}8,7,{8},{24}6xs2b[12:1],7x,6x,7x,6x,7x,{4}6bx,
{8}3xh[8:1],5,{16},2,4,3,1,{8},{16}8/2,,7,5,6,
8,{8},{16}7/1,{8},3,5,4,{16}6,5,,3,
{8}4,2,1,{16}1,8,,2/7,{8},{16}4,5,3,6,
{8}2,{16}8,1,{8},7/2,{16}3,3,,4/5,,6,{8}6,
{4}5x/7xh[4:1],{8}4,{16}7,5,6,8,{8},1/7,{16}2,4,
3,1,{8},{16}2/8,{8},{16}6,,4,,5,,3,{8}4,
{16}6,6,{8},5/4,{16}3,3,,4/2,{8},{16}3,4,2,5,
1,6,8,7,5,6,4,7,3,8,2,1,{24}2x,3,4,1x,8,7,
{16}6b/2b,{8},{16}8/5,,4,7,5,6,{8},{16}1/4,,5,2,4,
3,{8},{16}2/5,,3,4,3,5,3,6,3,7,7,,3h[16:3],
{8},6,2/7,{16}1,8,,2/7,{8},{16}3,4,3,4,
{8}2,{16}7,8,{8},1/6,{16}2,5,,3/4,,3,5,4,
{4}3/6b,{16}6,3,8,1,{8},2/7,{16}6,3,8,1,
{8},2/5,{16}3,4,3,5,3,6,3,7,{8}7,3h[16:3],
,6,7/2,{16}8,1,,7/2,{8},{16}6,5,6,5,
{8}7,1xh[16:1]/8xh[16:1],{16}8x/1x,1x/8x,8x/1x,1x/8x,{8},7b/2b,{4},{8}3/5,
3,3/6,3,{4}3/7,E8/B8/B1/E2/B2/B3/E4,
{8}4/6,6,3/6,6,{4}6/2,B1/B8/B7/B6/B3/B4/B5/C,
{8}3/5,3,3/6,3,{4}3/7,B7/C/B3/B1/B5,
{8}6/4,6,6/3,6,{4}6/2,B8/B7/E7/A6/E6/B5/B4/C/E5/D5/E1,
{16}3,3h[8:1],,6,{8}6h[8:1],{16}2,2h[8:1],,7,{8}7,{4}B8/B1/B2/C/B3/B4/B5,
{16}7,7h[8:1],,3,{8}3h[8:1],{16}5,5h[8:1],,1,{8}1,{4}B8/B1/B2/C/B6/B5/B4,
{8}3/6,{32}4,5,4,5,{8}4,{32}6,3,6,3,{8}6,7/2,{4}1/8-5[8:1]*z4[8:1],
{2}8<3[8:1]*>3<5[8:1],{8}1-5[8:1],6h[8:1],{16}1b,Cf,{8},{16}6b,
{8},{16}8,7,3,4,1,8h[6:1],{8},{16}2,1,5,6,1,
{4}8h[16:3],{16}4,8,2,6,{8}1,8/7,{16}1,1,,6/2,
{8},2,3/6,{16}5,4,,2/7,{8},{16}2,8,1,7,
{8}8,{16}6,5,{8},3/7h[16:3],{32}8,1,{16}2h[32:3],{32},6h[32:5],{8},{32}2,3,7/4,6,{16}5,
3b,{8},{16}1,2,6,5,8,1h[6:1],{8},{16}7,8,4,3,8,
{4}1h[16:3],{16}5,1,7,3,{8}8,2/6,{16}1,8,,2/7,
{8},7,6/3,{16}4,5,,3/6,{8},{16}6,2,5,3,
{8}4,2h[16:1]/5h[16:1],{16},2h[16:1],6h[16:1],3h[16:1],5h[16:1],8h[16:1],7h[16:1],2h[16:1],{8}6h[16:1],4/3,
{16}2h,4,3h,7,5h,6,8h,7,1h,8,2h,1,5h,6,8h,4,
3h,1,5h,6,8h,4,3h,1,5h,6,8h,4,3h,1,5h,6,
8h,4,3h,1,5h,7,1h,5,3h,1,5h,7,1h,5,{8}3h[8:1],
{16}7,7,3,3,5,5,1,1,8,8,2,2,6pp5[2:1],6,4,4h[16:13],
{8},,,,,,,6b/4b,
3b/1b,8b/6b,2b/4b,7b/5b,3b/6b,5b/4b,{4}3h[6:1],
{16}5,5,3,3,1,1,2,2,7,7,{8}1h[8:1],{32}7x,6x,5x,4x,{8},{16}3,
4,3,4,2,5,2,5,{32}1,2,3,4,5/8,7,6,5,4-8[16:1],3,2,1,8,7b/3x,6b/2x,5b/1x,
4b/8x,Cf,{8},{16}B2,{8},E3,{16},3xh[16:3],{8},{16}5,3,6,4,
7,{8},{16}B7,{8},E7,{16},6xh[16:3],{8},{16}4,6,3,5,
2,{8},{16}B6,{8},B3,{16},3xh[16:3],{8},{16}5,3,6,4,
7,{8},{16}4/7,{8},6/3,{32}3x,4,5,6,7,8,1,2,3v8[16:1]/7v4[16:1],6,5,4,3,2,1,8,
{1}7b/3b,
E
