&title=虚無さん
&artist=25時、ナイトコードで。
&first=0
&des_5=NaTsuYu
&lv_5=14.8
&des=NaTsuYu
&inote_5=(115){1},{8}6/4h[16:3],{16}5,3h[16:3],{8}4,{16}5h[16:3],4,6,6,{8}6,{16}1/8h[16:3],{8},{16}7,
6/1,2,{8}3,{16}5/2-4>3-8[16:3],3,{8}4,{16}2/6v7-4[8:1],5,,5,{8}6,{16}1,2,
{8}3/5h[16:3],{16}4,6h[16:3],{8}5,{16}4h[16:3],5,3,3,{8}3,{16}8/1h[16:3],{8},{16}2,
{8}3/8h[8:1],{16}2,3/7h[8:1],2,1,{8}8/6h[8:1],{16}E1,E2,{48}E3,B3,B4,B5,B6,B7,{4}B8/E5f,
{16}2/5,3,4,3h[16:3],{8}5b,{16}1,2/8h[8:1],,1,{8}8/6h[8:1],{16}7b,8,1,2/3h[16:3],
,4,4,2,{8}3b/1,{16}5/6,7/6h[8:1],,5,4,3,{4}5b/4h[4:1],
{16}7,6,5,6h[16:3],{8}4b,{16}8,7/1h[8:1],,8,{8}1/3h[8:1],{16}2b,1,8,7,
6/5,4,{8}3,8/7,2,{32}4,5,{16}3,6,{32}4,5,{8}3b/6b,5,
{4}5/Ch[16:3],{8}5/Ch[16:3],6,7/Ch[16:3],8,1/Ch[16:3],2,
Ch[16:3],1,8/Ch[16:3],7,{4}6h[16:3]/Ch[16:3],6h[16:3]/Ch[16:3],
{8}7/Ch[16:3],8,Ch[16:3]/7-3[4:1],8,{4}7/Ch[16:3],{8}Ch[16:3],3h[16:3],
Ch[16:3],4,Ch[16:3]/3-7[4:1],4,{4}3/Ch[16:3],{8}Ch[16:3],8,
{4}8/Ch[16:3],{8}8/Ch[16:3],7,6/Ch[16:3],5,4/Ch[16:3],3,
Ch[16:3],5,Ch[16:3]/6-2[4:1],5,{4}6/Ch[16:3],A2/Ch[16:3],
{8}A2/Ch[16:3],A1,A2/Ch[16:3],A1,{4}A2/Ch[16:3],{8}A2/Ch[16:3],A1,
{64}2b/8,3,4,5,{16},,,{64}7b/1,6,5,4,{16},,,{64}2b,3,{32}4,{16},{64}7b,6,{32}5,{16},3-8[16:1],4,2v5[16:1],4,
{8}3,{16}2p6[16:1],6h[16:3],{8},2,{4}5/4,{16}2-5[16:1],1,3v8[16:1],1,
{8}2,{16}3q7[16:1],7h[16:3],{8},3,{4}8/1,{8}2h[8:1],8h[8:1],
{4}2h[4:1],8h[16:7],{16}6,{8},{16}6h[16:3],{8},{16}2,6h[8:1],
,2,5,1,4b-8[8:1],8,{8}3,{4}4,{16}6-1[16:1],5,7v4[16:1],5,
{8}6,{16}7q3[16:1],3h[16:3],{8},7,{4}4/5,{16}7-4[16:1],8,6v1[16:1],8,
{8}7,{16}6p2[16:1],2h[16:3],{8},6,{4}1/8,{8}7h[8:1],1h[8:1],
{4}7h[4:1],1h[16:7],{16}3,{8},{16}3h[32:17],{8},5h[32:11],
{4},{24}6b/4b,7b/5b,8b/6b,1b/7b,2b/8b,3b/1b,{16}4b/2b,{8},{16}Ch[16:1],{4},{64}2b/1b,
3x,4x,5x,{16},7,8/6,{8},{64}2b/1b,3x,4x,5x,{16},7,8/6,{8},2/1v4[8:1],6/5v8[8:1],
1-3[12:1],5-7[12:1],1w5[8:1],5,{4}1,{8}5/3qq5[8:1],1/7,
5/3,{16}6pp4[8:1],6,{8},4/6,{16}3,3,{8},7/5pp5[8:1],2/4,
{4}5/4,{8}2/4qq4[8:1],7/5,{4}4/5,7-4[16:1],
{8}7/C/B7/E7/B6/B5/E5,{16}3/2-5[16:1],2/3,{8},2/E5/B4/B3/E3/B2/C,{16}7/6,7/6,{8},7/8>3[8:1],4/3<6[8:1],
{16}8/7,7,8v5[8:1],8,{8}1v4[8:1],8,{4}1,{8}3/4w8[16:1],1/8,
4,{16}6/5w1[16:1],6/5,{8},5,{16}4/3,4/3,{8},1b-5b[8:1],8b-6b[8:1],
1b-4b[8:1],8b-5b[8:1],1b-3b[8:1],8b-4b[8:1],1h[64:1],8h[64:1],{48}1,5,1,5,1,5,1,5,1,5,1,5,
1h[8:5],5h[24:7],{3},{8}B1,{4}5h[16:9],8h[8:5],
{8},B8,{4}4h[16:9],{8}1h[8:5],{4},{8}B1,
{4}5h[16:9],8h[8:5],{8},B8,{4}4h[16:9],
{8}1h[8:5],{4},{8}B1,{4}5h[16:9],8h[8:5],
{8},B8,{4}4h[16:9],{8}1h[8:5],{4},{8}B1,
{4}5h[16:9],8h[4:3],{8},B8,{4}4h[4:1],
{80},1,5,2,6,3,7,4,8,5,{8}1h[8:1],5h[8:1],{48}1,4,8,3,7,2,{96}6,D6f,A5f,D5f,A4f,D4f,A3f,D3f,A2f,D2f,A1f,D1f,A8f,D8f,A7f,D7f,A6f,D6f,A5f/Ch[16:1],D5f,A4f,D4f,A3f,D3f,{4}A2f,
{12}2-4[12:1],1-5[12:1],8-6[12:1],2,1,8,{64}5xh[4:1],{4},{64}3x,4x,6x,5x,3x,4x,6x,5x,3x,4x,6x,5x,3x,4x,6x,
{12}5x-7[12:1],4-7[12:1],3-7[12:1],5-1[12:1],4-1[12:1],3-1[12:1],5,4,3,{48}7x,6x,7x,6x,7x,6x,7x,6x,7x,6x,7x,6x,
{12}7-5[12:1],8-4[12:1],1-3[12:1],7,8,1,{64}4h[4:1],{4},{64}6,5,3,4,6,5,3,4,6,5,3,4,6,5,3,
{12}4-2[12:1],5-2[12:1],6-2[12:1],4-8[12:1],5-8[12:1],6-8[12:1],4,5,6,{48}3w7[4:1],2,3,2,3,2,3,2,3,2,3,2,
{1}3,
E
