&title=爱立刻2000
&artist=天秤Dav
&first=0.03
&des=Cinno
&lv_5=13+
&inote_5=(172)
{1}Ch[1:7],B1,B2,B3,B4,B5,B6,B7,
{8},1>4[8:1],,8,,7,,6<1[8:1],,5,,4,,3,,2-7[8:1]*v5[8:1],,2,,,,,,,37,3<5[8:1]/7v1[8:1],,37,,48,,26,,
{8}37,,26,,37,,26,,37,,26,,37,,26,,3/7p4[4:1],,,,,,,
{16}7-4[8:1],,,,17,,,1x,,,2v8[8:1],,,,5,,,,
{8}1x/7x,,35,,17,,35,,17,,35,,17,,35,,1p4[4:1]/7,,,,6,7,8,,
{16},1x/7x,,,2x-5[8:1],,,,1,,8,,7,,,,
{8}48,,26,,48,,26,,48,,26,,48,,26,,4-2-7[4:1]/8-6-3[4:1],
{8},,,,,2,2b-6[8:1]/7b,,2b/1b-5[8:1],,1b<6[8:1]/8b>3[8:1],,1b/8b,,
{1}4xqq1[2:1]/5xpp8[2:1],
{8}1qq1[8:1]*pp1[8:1],,1,,,4x/6x,37,28,1qq1[8:1]*pp1[8:1],,1,,,
{8}7xh[4:1],2,1,8qq8[8:1]*pp8[8:1],,8,,,
{8}1x/7x,26,35,4qq4[8:1]*pp4[8:1],,4,,,1x,8,27,3qq5[4:1]/6pp4[4:1],,36,,,
{8}1xh[4:1],8,7,6qq6[8:1]*pp6[8:1],,6,,,
{8}2x,13,84,7pp7[8:1]/5qq5[8:1],,75,,,
{8}6xh[4:1],1,2,3qq3[8:1]*pp3[8:1],,3,,,
{8}1x/8x,27,36,4qq5[4:1]/5pp4[4:1],,45,,,1x,28,37,4qq4[8:1]/6pp6[8:1],,46,,,
{8}5xh[4:1],2,3,4qq4[8:1]*pp4[8:1],,4,,,
{8}1x,8,27,2pp8[4:1]/7qq1[4:1],,27,,,4xh[4:1],8,7,6qq6[8:1]*pp6[8:1],,6,,,
{8}8x,17,26,3qq3[8:1]/5pp5[8:1],,35,,,4x,5,36,2pp2[8:1]/7qq7[8:1],,27,,,
{8}18,27,36,4qq5[4:1]/5pp4[4:1],,4qq1[4:3]/5pp8[4:3],,,,,,,,,,
{8},7,8,1,2/7,,2,7,2,7,26,6,2,5,2,5,2,
{8}3,4,5,63,,3,5,3,5,53,6,3,6,3,7,3,
{8}6,7,8,16,,6,2,6,3,63,4,6,4,6,5,6,
{8}47,38,1<2[8:5]/2>1[8:5],,,,,,,,,4-1[8:1]/8-5[8:1],,84,,37,26,15,4/8,,
{8}1,7,1,7,1,17,2,7,2,7,3,7,3,37,4,,6,3,6,3,,63,6,3,7,3,7,3,
{8}7,37,8,38,,,1,7,1,71,2,7,2,7,2,7,3,7,3,7,3,7,7,2,2,5,5,
{8}1b-5[8:1],,8b-4[8:1]/1b,,1b<6[8:1]/8b>3[8:1],,1b/8b,,
{8}4x/5x,4x/5x,{16}7,8,7,,{8}4x/5x,4x/5x,{16}2,1,2,,
{8}8xpp8[8:1]*qq8[8:1],17,8,,,5x/3x,62,71,8pp8[8:1]*qq8[8:1],17,8,,,
{8}2xh[4:1],7,8,1pp1[8:1]*qq1[8:1],28,1,,,
{8}8x/2x,73,64,5pp5[8:1]*qq5[8:1],46,5,,,8x,1,72,
{8}6pp4[4:1]/3qq5[4:1],45,63,,,
{8}8xh[4:1],1,2,3pp3[8:1]*qq3[8:1],24,3,,,
{8}7x,86,15,2qq2[8:1]/4pp4[8:1],3,24,,,
{8}3xh[4:1],8,7,6pp6[8:1]*qq6[8:1],57,6,,,
{8}8x/1x,72,63,5pp4[4:1]/4qq5[4:1],18,54,,,
{8}8x,71,62,5pp5[8:1]/3qq3[8:1],4x,53,,,
{8}4xh[4:1],7,6,5pp5[8:1]*qq5[8:1],28,5,,,
{8}8x,1,72,7qq1[4:1]/2pp8[4:1],45,72,,,
{8}5xh[4:1],1,2,3pp3[8:1]*qq3[8:1],24,3,,,
{8}1x,82,73,6pp6[8:1]/4qq4[8:1],5x,64,,,5x,4,63,7qq7[8:1]/2pp2[8:1],1x/8x,72,,,
{8}81,72,63,5pp4[2:1]/4qq5[2:1],18,5/4,,,,,,
{16}2,4,3,,7,5,6,,2,4,3,,7,5,6,,3,4,3,,6,5,6,,3,4,3,,6,5,6,,
{16}1,4,3,,8,5,6,,1,4,3,,8,5,6,,2,4,2,,7,5,7,,2,4,2,,7,5,7,,
{16}2,4,3,,6,4,5,,2,4,3,,6,4,5,,1,4,1,,8,5,8,,1,4,1,,8,5,8,,
{16}3,1,2,,7,1,8,,3,1,2,,7,1,8,,2,1,2,,7,8,7,,2,1,2,,7,8,7,,
{16}2x,1,2,1,3,8,3,8,E6,B5,B4,E4,E2,B1,B8,E8,
{16}3x,5,3,5,4,6,4,6,E2,B1,B8,E8,E6,B5,B4,E4,
{16}1x,7,1,7,4,6,4,6,E4,B3,B2,E2,E8,B7,B6,E6,
{16}2x,4,2,4,1,5,1,5,E4,B3,B2,E2,E8,B7,B6,E6,
{16}1x,8,1,8,4,5,4,5,E2,B1,B8,E8,E6,B5,B4,E4,
{16}1x,7,1,7,3,5,3,5,E6,B5,B4,E4,E2,B1,B8,E8,
{16}1x,5,1,5,8,4,8,4,E8,B7,B6,E6,E4,B3,B2,E2,
{16}8x,7,6,5,4,3,2,1,{32}8x,7,6,5,4,3,2,1,
{1}8bqq4[4:3]/4bqq8[4:3],
{8},,1pp1[8:1],,1qq1[8:1],,,5x,4,3,2qq2[8:1]/6h[2:1],,2bpp2[8:1],,,
{8}8x,7,6,5pp5[8:1],,5/3qq3[8:1],,,6x,7,8,1pp8[4:1],,8qq1[4:1],,,
{8}2x,3x,4x,5h[2:1]/1pp1[8:1],,1qq1[8:1],,,4x,5,6,7qq7[8:1],,2pp2[8:1]/7,,,
{8}8x,7,6,5qq5[8:1],,5pp5[8:1],,,1x,2,3,4qq5[4:1],,5pp4[4:1],,,
{8}3x,2x,1x,8pp8[8:1]/4,,4/8qq8[8:1],,,1x,2,3,4qq4[8:1],,4/6pp6[8:1],,,
{8}5x,4,3,2pp2[8:1]/6,,6/2qq2[8:1],,,4x,5,6,7qq1[4:1],,2pp8[4:1]/7,,,
{8}5x,6,7,8pp8[8:1]/4,,8qq8[8:1]/4,,,1x,2,3,4qq4[8:1],,4/6pp6[8:1],,,
{8}4x,3,2,1pp8[4:1],,8qq1[4:1],,,2x,3,4,5pp5[8:1]*qq5[8:1],,5>7[8:3],,,,,,
{1}5b/1b,
E
