&title=アイデンティティ
&artist=酒井ミキオ
&first=-0.387
&des=PiraTom(for practice)
&lv_5=12
&des_5=PiraTom(for practice)
&inote_5=
(124){4},{16},,,,,,,,,,,,3,
4,,5/2,,4,,6,5,7,,4/8,,7,4>6[8:5],5h[16:13],
,,,,,,,,,,,,,,,,{8}6h[8:1],
{16}4,6h[8:1],,7,{8}6h[8:1],{16}4,6h[8:1],,8,{8}6<1[16:1],5,
{4}2qq5[16:3],{8}4,6,{2}7pp4[16:3],
{8}3h[8:1],{16}5,3h[8:1],,2,{8}3h[8:1],4,1,7/8,5,
{4}6pp4[16:3],3,3qq5[16:3],6,
{8}6h[8:1],{16}7,6h[8:1],,4,{8}6h[8:1],1,2/1,4,5p4[4:1],
7,,,1,{4}2-7[8:1],2s6[4:1],
{8}8h[16:3],,,8,{16}7,7,,6,,4,5,3,
{8}4,1/2,{16}4,3,,5,{8}4,{16}7-2[16:1],8,{4}6,
{8}3h[8:1],{16}4,3h[8:1],,2,{8}3h[8:1],{16}5,3h[8:1],,1,{8}3>8[16:1],7,
{4}6q7[16:3],{8}5,3,{4}2q3[16:3],6,
{8}6h[8:1],{16}4,6h[8:1],,7,{8}6h[8:1],5,7/8,2/1,3/4,
{2}6p5[16:3]/5>2[8:1],1q2[16:3]*<6[8:1],
{8}3h[8:1],{16}4,3h[8:1],,2,{8}3>8[16:1],8,6,4,5<8[8:1],
8>3[8:1],5,,4,2-5[16:1],1,7-4[16:1],8,
2h[16:3],{16}5s1[8:3],5,,,{8}2,{16},3,,,4,4,8,8,
,,2,4,2,5,3,5,4,6,4,7,5,7,{8}4>6[8:3],
{16}4,,,5,,,{8}5h[4:1],,,6/4,{16}5,4,
3/6<1[16:3],,,1>4[16:3],,,{8}5h[4:1],,,5-1[8:1],7/1V74[16:5],
{16}2/5,,,3,,,{8}3h[4:1],,,4/2-6[8:1],6<4[8:3],
{16}2,,,5,,,{8}5h[4:1],{16},,,,6,5,,,6/4>8[16:3],
,,8V25[16:3],,,{8}6-2[8:1],{4}6,{16}3,3,{8}1,
{16}4/8<4[16:3],,,4V61[16:3],,,{8}2-6[8:1],{4}2,{8}8,{16}3,4,
2,6,5,7,2,1,4,6,6,2,4,4,1-6[8:1],3,5-2[8:1],7,
,,,,,,{8}8,7/1,{16}5,3>5[16:3],7,8,6,3b,
,,{8}1,3/7,{16}3,4,{8}2,{16}6,1pp8[16:3],8,4,6,1,
,,{8}5,6/7,3,2/1,{16}8,4qq5[16:3],7,3,5,4,
,,{8}6,4/7,{16}8,4,{8}6h[8:1],{16}3,5,2,4,8,7-3[16:1],
2,4,3,7,,,{8}1,8/2,{16}4,6<4[16:3],2,1,3,6b,
,,{8}8,6/2,{16}3,4,{8}2h[8:1],{16}5,1,6,8,{8}7-4[16:1],
6/8,2-5[16:1],1/3,8s4[16:3],{4}7/1,1,
{8}3h[8:1],{16}4,3h[8:1],,2,{8}3h[8:1],{16}5,3h[8:1],,1,{8}3>5[4:1],8/7,
{16}3,,,4,,,{8}7,2/6,{16}3,7<1[16:3],1,5,4,7b,
,,{8}4,2/6,{16}3,4,{8}1,{16}8,3,7-4[16:1],2,5-1[16:1],1,
,,,,{8}8,2,3/1,{16}3,8qq1[16:3],1,5,2,8,
,,{8}3,2/3,{16}8,4,{8}6h[8:1],{16}3,5,2,4,8,7-3[16:1],
2,4,3,7,,,{8}1,7/3,{16}6,2>8[16:3],8,4,5,2b,
,,{8}5,7/3,{16}2,1,{8}3h[8:1],{16}8,2,6,4,{8}5-1[8:1],
2/8,5,4>6[16:3],8/7,{4}4,5,
{8}3h[8:1],{16}4,8h[8:1],,7,{8}5h[8:1],{16}6,2h[8:1],,1,{8}3-7[8:1],4/2,
{16}3/7,,,8,,,{8}6/2,{4}5-8[8:1]/1-4[8:1],1qq6[8:5]/5qq2[8:5],
{1}5b/1b,
{16}6,1,,3,{8}8,{16}1/8,7/2,,,,,{4}5b,
{16}3,4,,5/2,,4,,6,5,7,,4/8,,7,4>5[8:7],5p4[16:13],
{1}2b,
E
