&title=恋ノ蟲
&artist=花たん
&first=0
&des=坏利哪里提
&lv_5=13
&des_5=坏利哪里提
&inote_5=
(144){4},,,,,,(72){2}6pp4[2:1],
4>6[4:1],3qq5[2:1],
5<3[4:1],6pp5[8:3],
{4}4qq5[8:3],{8}5,6,7>4[4:1],7,{4}7p5[8:3],
{8},,,,(144)3b/4b,,,6b/5b,
,,{4}1b/8b,2/7<4[8:1],{8}2,3qq2[4:1],
,3,5,6,{4}7<4[8:1],{8}2,3qq2[4:1],
,3,5,6,{4}7<4[4:1],4>1[4:1],
1<6[4:1],{8}5,5qq1[2:1],,,{4}6,
7,8,7qq6[4:1],2,
3qq2[4:1],6,7V53[4:1],2,
1-5[8:1],8,6pp6[4:1],4,
2pp2[4:1],5,{2}6b>7[8:9]*pp5[4:7],
,,,4h[4:3],
{4},5,{2}6h[2:1],
5h[2:1],4<7[4:1],
3qq4[8:3],6<3[2:1],
{4}4,4h[4:1],{2}5h[4:3],
{4},3,{2}2h[2:1],
4h[2:1],{4}5>2[4:1],6,
{2}7qq8[8:3],1h[2:1],
8z4[4:1],{4}3h[8:1],3h[8:1]/5<1[4:1],
3h[8:1],3h[8:1],4h[8:1]/2-6[8:1],4h[8:1],
4h[8:1]/7q3[8:1],4h[8:1],5h[8:1]/3qq6[2:1],5h[8:1],
5h[8:1],5h[8:1],5h[8:1]/7-3[8:1],5-8[8:1],
5b/4b-1[8:1],4b,8h[8:1],8h[8:1]/1>5[4:1],
8h[8:1],8h[8:1],7h[8:1]/5-2[8:1],7h[8:1],
6h[8:1]/8q4[8:1],6h[8:1],5h[8:1]/3qq7[2:1],5h[8:1],
5h[8:1],5h[8:1],8>3[8:1],5<8[8:1],
2>5[8:1],1/2,7-3[8:1],4-2[8:1],
5-7[8:1],2-6[8:1],7-3[8:1],4>1[8:1],
4/5<8[8:1],5,2-6[8:1],8-6[8:1],
1-3[8:1],7-3[8:1],2-6[8:1],8<5[8:1],
8/1>4[8:1],1,6-2[8:1],4<7[8:1],
1-4[8:1],8,3-7[8:1],1>4[8:1],
5-8[8:1],4,5>2[8:1],{8}8,7,
{4}6>2[6:1],{8}1,8,{4}7<2[24:5],{8}2,1,
{2}8<2[4:1],{8}1b,,,3b/4b,
,,{4}5b/7b,1s5[8:1],{8}7,6<3[4:1],
,6,5,4,{4}4z8[8:1],{8}6,7<2[4:1],
,7,8,1,{4}1V37[4:1],7V51[4:1],
1>6[4:1],{8}8,7p2[8:1],,,,1,
8,7,6/5,4,{4}5/3>5[4:1],4,
4>6[4:1],5,5>7[4:1],6,
{8}6,5,3/4,2,{4}1/7<1[4:1],8,
8<2[4:1],1,{2}1<3[4:1],
{16}1b,,,2b/4b,,,{8}6b/5b,{4}8>3[8:1],{8}4,5<3[4:1],
,3,4-8[8:1],5,{4}4<7[8:1],{8}7,1>7[4:1],
,7,8-4[8:1],1,{4}8V25[4:1],5V37[4:1],
7>4[4:1],{8}6,5p8[8:1],,,,7,
6/1,3,4/5,6,{4}7>5[4:1],6,
6<4[4:1],5,5<3[4:1],4,
{8}4,5,6/4,7,{4}8/3<1[4:1],2,
2>8[4:1],1,{2}1>7[4:1],
{4}8-4[8:1],8/2z6[16:3],{2}5<3[2:1],
{4},,4-1[8:1],4V61[4:1],
,,2-5[8:1],{8}8,8<5[8:1],
,5,4-7[8:1],3,{4}2-5[8:1],{8}8,8<5[8:1],
,5,4-7[8:1],3,{4}2<7[8:1],6-2[8:1],
5<8[8:1],{8}1,1-5[8:1],,,{4}7>2[8:1],
6q3[8:1],5,4>1[8:1],5,
5p1[8:1],6,6v1[8:1],7,
8-4[8:1],1,1<6[8:1],2,
2p6[8:1],3,{8}4,6,6,{16}3,3,
2b/4b,,,8b/7b,,,{8}2b/6b,{24},,,,,,,,,3,4,5,
{1}6,
E
