&title=エクスプロウル
&artist=晴いちばん feat.初音ミク
&first=0
&lv_5=13+
&des_5=The lost technology:
&inote_5=(164){1},
{8}4/6,,,4h[8:2]/6h[8:2],,,5,,
{8}5/3,,,5h[8:2]/3h[8:2],,,4,,
{8}4/6,,,4h[8:2]/6h[8:2],,,3/7,,
{16}4/5,,3,4,3,4,3,4,2>6[32:5],,,,1b/2b,,,,
{8}8x,5,4,3/5-3[8:1],,2,2,4,
{8}1x,4,5,6/4-6[8:1],,7,7,5,
{8}8x,4,3,2/5-3[8:1],,1,1,5,
{8}2x,5,6,7V51[64:11]/4,,2x,2x,,
{16}4,,,,3/4,,,,3,,,3,4,,3h[16:6],,
{16},,4,,4,,,,3/5,,,3,4,,3,,
{8}4V61[4:2],,2,,2,,2,,
{16}3h[16:5],,1,,,1x,,,2/8,,,2x/8x,,,7,,
{16}5,,,,6/5,,,,6,,,6,5,,6h[16:6],,
{16},,5,,5,,,,6/4,,,6,5,,6,,
{8}5qq6[4:2],,7,,7,,7,,
{16}8x<5[8:1]/5x>2[8:1],,,,,,,,1b,,,2b/4b,,,5b/6b,,
{16}3x-1[8:1]/7x,,,,5,,,,7-4[8:1],,,2,,,2,,
{16}1,,4,,5/3,,,,6x-8[32:3]/2x-5[32:3],,,,,,,,
{16}7-4[8:1]/4,,,3,,,3,,2-8[8:1],,,,2/7,,,,
{16}5,,1,,,1/8,,,7x-1[32:3]/2x-5[32:3],,,,,,,,
{16}4-6[8:1]/7,,,,7,,,,8-5[8:1],,,3,,,3,,
{16},,4,,3/5,,,,2x-5[32:3]/6x-4[32:3],,,,,,,,
{16}7-2[8:1]/3,,,,3,,,,3x/4x,,,5x/7x,,,2xh[4:1]/8x,,
{16},,8,,7,,6,,8xh[32:2]/5xh[32:2],,1xh[32:2]/6xh[32:2],,7xh[32:2]/2xh[32:2],,3xh[32:2]/8xh[32:2],,
{4}4x>6[8:5],,8x,,
{16}7,,,7pp3[16:7],,,,,{4}2x,,
{4}1<2[8:5],,5x,,
{16}6,,,6pp1[16:7],,,,,{4}2x-4[8:1],,
{4}5-8[8:1],5/6,1-4[8:1],1/2,
{4}7<4[4:1],4>1[4:1],1<6[4:1],6pp3[16:10],
{8}4,,,,,,,6b/2b,
{8},4b/3b,7b/5b<4b[8:3],,,,,,
{16}5w1[8:1],,,,5b,,,,3/7,,4x,6,4,,5<8[8:1],,
{16},,1,,2-6[8:1],,,,1x-5[8:1]/2x-4[8:1],,,,1x/2x,,,,
{16}8x,,8,,1/7,,6,,5/4,,3,,2/1-5[8:1],,8,,
{16}7-3[8:1]/1b,,,,7b/1-6[8:1],,,,1bv4[8:1]/7v4[8:1],,,,1b/7b,,,,
{16}6x/2x,,3,,5/4,,6,,5/7,,8,1,8,,3xpp2[32:8],,
{16},,1,,8,,7,,1/7,,6,5,6,,4,,
{16}2/4-8[8:1],,,,3,,3,,1x,,,7x/5x,,,4b<7[8:1]/3b,,
{16},,2,,2-6[8:1],,,,8w4[32:3]/2b,,,,8b,,,,
{16}2xh[8:2]/6xh[8:2],,,,{48},7x/3x,8x/4x,{16}5x/1x,,,8,,8,,7/1,,6,,
{16}5/4,,3,,2v3-5[4:1]/1,,8xh[4:1],,,,,,6,,6,,
{16}2/4,,5,,6/4pp5[16:4],,8xh[4:1],,,,,,8,,8,,
{16}3-1[8:1]/7,,4,,3/7-4[8:1],,6,,1xw5[32:3]/7,,,,1,,,,
{32}8x-4[8:1]/1x-5[8:1],7x/2x,6x/3x,5x/4x,{16},,8b/1b,,,,7,,7,,8/2,,3,,
{16}4/5,,6,,7qq6[32:7]/8,,1xh[4:1],,,,,,3,,3,,
{16}5/7,,4,,5s1[4:1]/3,,1xh[4:1],,,,,,2,,2,,
{16}8,,8,,1/7,,7x,5,6,,3x,4,3,4-8[32:3],2,,
{16},,,,3,,,,3,,,,3x,5x,4x,6x,
{16}5x>7[8:3],,,,6,,,,6,,,,6,,,,
{16}7p4[8:5],,,,3,,,,2,,,,1,,,,
{16}E2,E3,E4,E5,E1,E8,E7,E6,D2,D1,D8,D7,D6,D5,D4,D3,
{16}D2/8x,,,,8,,1,,8,,,,8/2,,,,
{16}8,,3,,8,,4,,8,,,,5/7,,,,
{16}3V14[16:4]*pp4[16:4]/4,,,,,,,,,,,,2qq3[16:5]`7pp6[16:5],,,,
{16}2b/7b,,,,,,,,8bx/1bx,,,2bx/5bx,,,4bx/7bx,,
{16}6x/5x-3[8:1],,,,8,,,,4-7[8:1],,,2,4,,3,,
{16}8,,8,,5h[4:1],,,,7-5[8:1],,,8,7,,4,,
{16}2-4[8:1],,,1,2,,6,,8<5[8:1],,,,8>3[8:1]/1,,,,
{16}8/5,,5,,,6/4,,,7-4[32:3]/5-2[32:3],,,7/5,,,,,
{16}1>4[8:1]/4,,,,6,,,,8<5[8:1],,,5,8,,2h[4:1],,
{16},,4,,3/5,,,,6-8[8:1],,,5,6,,1,,
{16}3-1[8:1],,,4,3,,8,,5x/7x,,,3x/4x,,,6xh[8:3]/2x,,
{16},,3,,4,,5,,4xh[16:1]/7xh[16:1],,3xh[16:1]/6xh[16:1],,2xh[16:1]/5xh[16:1],,1xh[16:1]/4xh[16:1],,
{4}8x>6[8:5],,7x,,
{16}8,,,8pp5[16:7],,,,,{4}4x,,
{4}1<2[8:5],,5x,,
{16}7,,,7qq4[16:7],,,,,{4}3x-1[8:1],,
{4}8-3[8:1],5/8,1-6[8:1],1/4,
{4}3-5[8:1],6-2[8:1]/3,1w5[8:1]/6,1,
{8}3h[16:11]/7h[16:11],,,,,,,6b/2b,
{8},4b/3b,7bs3b[8:2]/5b,,,,,,
{16}1xb/5x,,,,3,4,3,,3,4,2,,2,4,3,4,
{16}3,,4/5,,,4/5,,,6,5,6,,6,5,6,5,
{48}E8f,,,{16},,,2/6,,2/6,,1,8,1,,1,8,1,8,
{16}2,3,4,5,8,7,6,5,8h[192:1],1h[192:1],2h[192:1],3h[192:1],4h[192:1]/8-4[8:1],,,,
{16}1x/8x,,,,B1/5x,,5,,3,4,3,,B2/5x,,5,,
{16}3,4,3,,B1/5x,,5,,3,4,3,4,B2,,,,
{1}5x/7xv6-4-2-8-5[8:6],
{8},3,3/4,,2V46[8:1]/5-8[8:1],,,,
{4}1<3[8:5],,3x,,
{16}2h[16:3],,,4h[16:3],,,5,,5x-1[8:1]/7x-4[8:1],,,,,,,,
{4}2>8[8:5],,8x,,
{16}7h[16:3],,,5h[16:3],,,4,,4x-8[8:1]/2x-5[8:1],,,,,,,,
{4}7p4[8:5],,5x,,
{16}1h[16:3],,,3h[16:3],,,4,,4x/6xh[4:1],,,,5,,,,
{16}7h[16:3],,,5h[16:3],,,4,,4x/1x>5qq6[8:7],,,,,,,,
{4}7p1b[8:3],,,,
{8}A7h[4:3]/B7h[4:3]/E7h[4:3],,,,,,A3f,A5f/B5/A1/B1/E1/E2,
{8},8x,1>4[8:1]/5<8[8:1],,1xv6[8:1]/5xv2[8:1],,5x/1x,,
{16}1x,,1,,8/2,,3,,4/5,,6,,7/8-4[8:1],,1,,
{16}2p6[8:1]/8b<6[8:1],,,,2b>4[8:1]/8q4[8:1],,,,8bv5[8:1]/2v5[8:1],,,,8b/2b,,,,
{16}3x/7x,,6,,4/5,,3,,4/2,,1,8,1,,6xqq7[32:8],,
{16},,8,,1,,2,,8/2,,3,4,3,,5,,
{16}7/5-1[8:1],,,,6,,6,,8x,,,2x/4x,,,5b>2[8:1]/6b,,
{16},,7,,7-3[8:1],,8,,1w5[32:3]/7b,,,,1b,,,,
{32}3x,2x,1x,8x,7x,6x,5x,4x,{48}A8/3x,B8f,C,{16}B4,,,1/5,,2,4,3,,4/5,,
{16}6-2[32:4],,6,,1<6[8:1]*>4[8:1],,8,,1xw5[8:1],,,,1x,,,,
{16}8x,,8,,1/7,,6,,5/4,,3,4,2-6[8:1],,1,,
{16}2-4[8:1]/8b-4[8:1],,,,2b/8b,,,,{32}1bxw5b[8:1],8x,7x,6x,5x,4x,3x,2x,{16}Cf/B1/B5/A1/A5,,,,
{16}2x/8x,,7,,6/5,,4,,2/5,,3>5[32:8],4,3,,D8/A8f/D1,,
{16},,8x,,8x,,4,,2/6,,5,3,5,,4,,
{16}5/7-4[8:1],,,,7/8,,8,,2b,,,4b/6b,,,1b>7[32:7]/Cf,,
{16},,8,,8-4[8:1],,,,5/8,,,,A7/B7/Cf/B3/A3,,,,
{16}1x-6-2b[16:3],7x,3x,5x,1bx,,,,8,,{24}1x,7,1,{16}7,,2,,
{16}3/4,,5,,4/6,,7,,8h[8:1]/5,,3,,1h[8:1]/4,,6,,
{16}5/7,,4,,2/4,,6,,5-1[8:1],,8-6[8:1],,5,,8,,
{16}3-5[8:1],,4,,3-1[8:1],,8,,3-7[8:1],,6,,3,,,,
{32}5x/1xw5[8:1],6x/2x,7x/3x,8x/4x,{16},,1bx,,,,3x/7,,{24}8x,2,8,{16}2,,7,,
{16}6/5,,4,,5/3,,2,,1h[8:1]/4,,6,,8h[8:1]/5,,3,,
{16}4/2,,5,,7/5,,3,,4-7[8:1],,1-3[8:1],,4,,1,,
{16}8,,8,,1/7,,7b,5,6,,3b,4,1b-5[8:1],7,3x,,
{8}B1f/E1/E2,,,,D7,E8,B5,B2,3x>2-8-6-4-2[8:7],,,,
