&title=MIRINAE
&artist=TAK × Zekk
&first=0
&des=[场外] ZJU4
&lv_5=14
&inote_5=(180){4},,,,
{8},,6>5s1<8z4[32:34]/3<4z8>1s5[32:34],,,,,,,,,,,,E4,E6,
5hx[8:2]/4x,,E3,,7x/E3,,E3,,6x/E3,,E3,5x,E3,,E3/4x,5x,
3hx[8:2]/6x,,E7,,{32}E7/A4,D4,A3,D3,A2,D2,A1,,{8}E7,,{32}E7/A1,D2,A2,D3,A3,D4,A4,,{8}6hx[8:2],5,4,3hx[8:2],5,4,
5x/2hx[8:2],,E7,,1x/E7,,E7,,3x/E7,,E7,4x,E7,,E7/5x,4x,
6hx[8:2]/3x,,E3,,7-5[12:1],4,7,3,8-4[12:1],4,8,3,2x-4[12:1]/4x-6[12:1],1,,,
{16}3hb[8:1]/7hb[8:1],,,,18,,2,6,2h[8:1],,4,,1h[8:1],,7,,3h[8:1],,4,,25,,6h[8:1],,5,,47,,3h[8:1],,4,,
{24}2x-4[12:1],6x,2x,6x,2x,6x,{16}2x-8v6[32:7],,,,,,,,4,,5,,3h[8:1],,4,,3h[8:1],,5,,2-4[12:1]/6-8[12:1],,1,,,,,,
{16}3hb[8:1]/7hb[8:1],,,,81,,7,3,7h[8:1],,5,,8h[8:1],,2,,6h[8:1],,5,,74,,3h[8:1],,4,,52,,6h[8:1],,5,,
{24}8x-6[12:1],4x,8x,4x,8x,4x,{16}8x,,,,{8}2-4[12:1],5,2,6,1-5[12:1],5,1,6,7x-5[12:1]/5x-3[12:1],8,,,
{8}E3,,E3/7x<5[12:1],,E3,,E3,5xpp8[8:5],E3,,E3,,E3,,E3,,
C,,E7/2x-4[12:1],,E7,,E7,4xv2>3v1[8:5],E7,,E7,,E7,,E7,,
{16}2x/5x,,3,4,,4,2,,8x/3x,,6,5,,5,7,,
6x/1x,,2,4,,4,3,5,4x,,7,5,,5,6,,
3x,,3,,3/C,,3,,6x,,6,,6/C,,6,,3,4,3h[8:1],,7,5,7h[8:1],,A2,,A6,,C,,,,
{16}8bh[4:7]/1x-7-3-5-2-6b[4:5],,,,,,,,,,,,,,,,
{16},,,,,,,,,,,,7x^2[8:1],,,,
{16}6h[4:1]/7b,,,,3x,5,4,5,6x,5,7,5,8x,,1x-6[8:1]/6x,,
{16},,6x,,5x-2[8:1],,,,2x,,1,,8x^3[8:1]*^5[8:1],,,,
{16}8b,,,,2h[8:1]/6h[8:1],,,,7h[8:1]/8h[8:1],,,,2,6,2,6,
{16}7xh[8:1]/8h[8:1],,,,1v3[8:1]/5v7[8:1],,37,,1>4[8:1],,,,1x<6[8:1],,,,
{16}3h[4:1]/1b,,,,6x,4,5,4,3x,4,2,4,1x,,8x-3[8:1]/3x,,
{16},,3x,,4x-7[8:1],,,,7x,,8,,1xw5[8:1],,,,
{16}1b,,,,3h[8:1]/7h[8:1],,,,1h[8:1]/5h[8:1],,,,3x/4x,,2x/5xpp4[8:3],,
{16},,,,4>5[8:3],,,,1pp3b[8:1],,,,,,,,
{24}2x,4x,2x,{16}4x,,1xb/5xbh[4:1],,,,6x,5,5,5,4x,,3x-8[8:1]/5x,,
{16},,1x,,7xh[4:1],,,,8x,7,7,7,6x-2[8:1]*-4[8:1],,,,
{16}6b,,,,1h[8:1]/5h[8:1],,,,3h[8:1]/4h[8:1],,,,1,5,1,5,
{16}3h[8:1]/4xh[8:1],,,,2V41[4:1],,5,,1-5[8:1],,8,,7x<3[8:1],,,,
{16}7b>3[2:1]*^1-5[2:1],,,,,,,,,,,,,,4xh[8:3]/6xh[4:1],,
{16},,,,5x,4,4,4,3x,4,4,4,5x-2[8:1],,,,
{16}7b-4[8:1],,,,1b-6[8:1],,,,3b-8[8:1],,,,5,,5h[8:3],,
{16},,8,,8h[4:1],,,,4bw8[8:1],,A2f/D2/D3/A3/E2/B2/E3/A1/6b,,,,,,
{16}1x>7[4:5],,,,,,,,,,,,,,,,
{16},,,,,,,,Ch[2:1],,,,,,,,
{16}1x>7b[4:5],,,,,,,,,,,,,,,,
{16},,,,,,,,8z4[4:1],,,,,,,,
{16}1,,1,,3,,3,,5,,5,,7,,7,,
{16}8/1b,,{32}2x,3x,4x,5x,{16},,{32}7x,6x,5x,4x,{16},,{32}1x,2x,3x,4x,{16},,{32}8x,7x,6x,5x,
{16}4x-1[8:1],,,,4x-8[8:1],,,,4x-7[8:1],,,,4xb^2z6^8b[4:3],,,,
{16},,,,,,,,,,,,,,,,
{8}8bh[4:1]/4b,,
{16}5h[16:1],6h[16:1],5h[16:1],6h[16:1],4bx>1b[16:2],,4hx[8:1],,
{48}D4,A3,D3,A2,D2,A1,,,,,,,
{16}7x<4[16:2],,7hx[8:1],,
{48}D7,A6,D6,A5,D5,A4,,,,,,,
{16}2bx<7b[16:2],,2hx[8:1],,
{48}D2,A1,D1,A8,D8,A7,,,,,,,
{16}5hbx[4:1],,,,
{16}2h[16:1],4h[16:1],2h[16:1],4h[16:1],1bx-5b[16:2],,1hx[8:1],,
{32}B1,C,B5,A5,,,,,
{16}6hx[8:1],,,4hx[8:1]/5hx[8:1],,,3hx[8:1],,6bx-4b[12:1],,,,1-5[8:1],,,,
7bs3b[16:4],,,,E7,B6,C,B2,E3,,,,
4,3,2h[8:1],,8,7,6h[8:1],,1,2,3h[8:1],,4bx-2<1b[8:1],,5,,6,,7,,
8-6>5[8:1],,1,,2,,3,,4bx>3-1b[8:1],,5,,6,,7,,
A8,E1,E2,A2,A7,B7,C,B3,A6,E6,E5,A4,3xqq7[8:8],,3x,,
A7f,,,,,,,,,,,,,,,,,,,,1x>4[32:9]/5x<8[32:9],,,,,,,,,,,,
{16}5/6pp5[8:6],,,,,,,,E3,,,,,,,,,,,,2xpp4[32:8]/5xpp7[32:8],,,,,,,,,,,,
5/3qq5[8:6],,,,,,,,E7,,,,,,,,{16},,,,7xqq6[32:10]/4xqq3[32:10],,,,,,,,,,,,
{32}8h[8:2]/B4,E5,{16},,,,,,,{32}2h[8:2]/E7,B6,{16},,,,,,,{32}E3/6h[8:2],B3,{16},,,,,4,5,4,,3,,42,,5,,
{4}6pp1[8:8]/4,4,4,4,4,4,{8}4,7,46,5,
{8}4/3,,5/2qq4[8:7],2,{4}5,5,5,5,{8}5,2,53,4,
{8}85,8,75,7,64,6,45,5,
24,35,46,75,18,
{24}2x,3x,4x,{16}5hx[8:1],,{24}7x,6x,5x,
{16}4hx[8:1],,2,,3h[8:1]/4,,6,5,7,,1,,4/2h[8:1],,6,5,8,,2,,7/3h[8:1],,{24}6x,4x,6x,{16}4x,,{24}1x,5x,1x,{16}5x,,3,4,
2,1,3,8,4,7,5,6,{24}A2,A3,A4,A8,A7,A6,E3,E4,E5,E8,E7,E6,
{16}1hx[8:1],,8,8,3,7,4,6,1-5b[8:1],,5,,1b,,,,
{16}7x/4x,6,5,4,3x/8x,2,1,8,7x/2x,3,4,5,6x/1x,7,8,1,
{8}2x-5[32:3]/6x,,4-8[8:1]/2,,4/1w5[8:1],,1,,
{16}7x/4x,6,5,4,3x/8x,2,1,8,7x/3x,2,1,8,7x/4x,6,5,4,
{8}3x-6[8:1]/7x,,3/8-6>5[8:1]*<7v5[8:1],1,8b-2>3[8:1]*>1v3[8:1],,8b,,
{16}2x/5x,3,4,5,6x/1x,7,8,1,2x/7x,6,5,4,3x/8x,2,1,8,
{8}7x<4[32:3]/3x>8[32:3],,7-3[8:1]/3,,7/4w8[8:1],,4,,
{16}1x/5x,2,3,4,5x/8x,6,7,8,1x/5x,6,7,8,1x/4x,2,3,4,
{16}1x,5,2,6,3,7,4,8,{32}5x-1b[8:1]*-2b[8:1],6x,7x,8x,1x,2x,3x,4x,Cf,,,,,,,,
{16}7,5,6,4,5,3,4,2,1,3,8,2,7,1,6,8,
{8}5-2[8:1],,5/7-3[8:1],,7/1w5[8:1],,1,,
{16}2,4,3,5,4,6,5,7,{24}4w8[8:1],3,2,1/7,6,5,{16}4x,,,,
{16}2b/Cf,,,6b/Cf,,,8x/4x,3x/7x,2b-5b[8:1]/6b-1b[8:1],,,,2b/6b`Cf,,,,
{16}8,,1/7,,{32}E7,B6,B5,E5,,,,,{16}1,,2/8,,{32}A3,E4,E5,A5,,,,,
{16}7/8,,6/1,,A2,A7,B3,B6,1bx-5b[32:3],,2bx/8bx,,1bx,,,,
{16}7/4hx[8:1],,6,5,8hx[8:1],,3,4,2hx[8:1],,7,5,6hx[8:1],,1,5,
{16}3x,3,4,2,{24}6x,7x,8x,4x,3x,2x,{16}8x-5[8:1]/1x-4[8:1],,7x/2x,,A1/A8/D1f,,,,
{16}3b/6b,,,,2-5-2b[8:2]/1-6-1[8:2],,,,
{32}2x/1x,,,,,,,,,,,,8x>3[8:1],,,,
{16},,{32}8x/4x<7[8:1],,,,{16},,4x,,
{32}E1,E2,E3,E4,E5,E6,E7,E8,E1/Cf,,,,,,,,
{16}3b/6b,,,,7q4p7b[8:2]/8p3q8[8:2],,,,
{32}7x/8x,,,,,,,,,,,,1x<6[8:1],,,,
{16},,{32}1x/5x>2[8:1],,,,{16},,5x,,
{32}E1,E8,E7,E6,E5,E4,E3,E2,E1/Cf,,,,,,,,
{16}6b/3b,,,,1z5z1[8:2]/2s6s2b[8:2],,,,
{40}1x/2x,,,,,,,,,,{32},,,,8x>3[8:1],,,,
{16},,{32}8x/4x<7[8:1],,,,{16},,4x,,
{32}D1,D2,D3,D4,D5,D6,D7,D8,D1/Cf,,,,,,,,
{16}3b/7b,,,,2x-6[8:1]/6x-2b[8:1],,,,2x/6x,,,,7x/8x,,3xq5[8:3]/4x,,,,,,5<3[8:3],,,,8<5b[8:1],,,,,,,,
{16}2b<7b[8:1]/6b,,,,{24}7,6,5,4-6-1[32:7],,,
{16}1,,3,,,,{24}5,4,3,2h[8:1],,,8,7,6,5h[8:1],,,1,,,{32}2b-5b[8:1]/6b-1b[8:1],,,,,,,,2b/6b,,,,,,,,
{16}7b>2b[8:1]/3b,,,,{24}2,3,4,5-3-8[32:7],,,
{16}8,,6,,,,{24}4,5,6,7h[8:1],,,1,2,3,4h[8:1],,,8,,,{32}8x,1x,2x,3x,4x,5x,6x,7x,{32}8xq1[8:12],,,,,,,,
{12}1b,,,,,,,,,,,2b,,,,,,,,,,2b<4[8:12],,,6bpp3b[8:10],,,,,,,,,,,,,,,,,,,,,{8}B6/E6,B3/E4,
{8}4x/5x,,6/3,,7h[8:2]/E5,,5h[8:1],,6h[8:1],,45,,E6,3,42,,
5/4,,3/6,,2h[8:2]/E5,,4h[8:1],,3h[8:1],,45,,E4,6,57,,
45,,36,,7h[8:2]/E3,,5h[8:1],,6h[8:1],,45,,E7,3,42,,
17,,2h[8:2]/6,,7x-5[12:1],4,7,3,8-4[12:1],4,8,3,2xV48[8:2]/4x-6[32:3],1,,,,,,,,,,,,,,,,,
