&title=Jazzor C Version
&artist=无毒蜗牛
&first=0
&des_5=再次睁眼,我看到了电脑屏幕上那个熟悉的majdata界面。右下角的日期显示:海鲜杯2开赛还有三天。上一世,我因为写谱太区,沦为整个海鲜杯的笑柄,最后被甘党水母一触蛰死在比赛现场。那些笑声,那刺痛的麻木感,我至今记得清清楚楚。这一次,我不会再让任何人嘲笑我的谱。什么甘党水母,这一世,我要让你尝尝被“区”支配的恐惧。
&lv_5=14
&des=再次睁眼,我看到了电脑屏幕上那个熟悉的majdata界面。右下角的日期显示:海鲜杯2开赛还有三天。上一世,我因为写谱太区,沦为整个海鲜杯的笑柄,最后被甘党水母一触蛰死在比赛现场。那些笑声,那刺痛的麻木感,我至今记得清清楚楚。这一次,我不会再让任何人嘲笑我的谱。什么甘党水母,这一世,我要让你尝尝被“区”支配的恐惧。
&inote_5=(141)
{1},
{32}3h[32:1],4h,,,{8}5,
3,7,
{32}7h[32:1],5h,,,{8}6,
2,4,
{32}3h[32:1],4h,,,{8}5,
3,6,
{32}6h[32:1],5h,,,{8}7,
{64},3,,,,,,,,,{32}5h[32:3],,,
{16},4x,{128}5x,,,,,,,4x,,,,,,,{64}5x,
{128},,,,,4x,,,,,,,,5x,,,,,,,{32}4x,{128},,,5x,,,,,
,,{64}4x,{128},,,,,5x,,,,,,,4x,,,,,,,5x,,,,,,,{64}4x,
{128},,,,,5x,,,,,,,{32}4x,{128},,,5x,,,,,,,{64}4xh[64:11],,,
{64},,,,,,,,5h,6>3[32:3],{32},,,
,,,,,,,,
,,,,,,,,
,,,,,,,,
{4},
2h[32:1],
3h[32:1],
{16}4h[32:1],,,7h[4:1],
{4}5,
{8}4,3h[16:5],
4h[32:5],,
,5/7<3[4:1],
{8},8,
,1h[24:7],
{12},,4,
3h[12:2],,7,
{4}5h[4:1],
{8}6,3,
{32}4h,2h[32:7],,,,,,,
{8}5,4,
{16}6h[2:1]/5<2[8:3],,,,
,,,,
,,,5h[16:1],
4,,,6h[16:1],
{4}1>5[4:1],
{8}6,7,
,8,
{16}5h[16:3],,,6,
{4}1>6[8:3],
{8}5,7,
,8h[4:1],
,6h[8:1],
{20}7bx,6x,7x,6x,7x,6x,7x,6x,7x,6x,7x,6x,7x,6x,7x,6x,7x,6x,7x,6x,
{4}7x,
{16}5,4,3qq4[4:1],2b,
{2},
{32}7-5[8:1],5h,,,,,,,
{12},,2-4[12:1],
{4}4-6[12:1],
{8}7,7<3[4:1],
{8},8,
,1bpp3[16:3]*qq7[16:3],
{2},
{12}8h[4:1]/2>6[4:1],,,
,,7h[4:1],
,,8,
7,,2h[12:1],
{4}1,
8/3,
7/4,
5/6>4[12:1],
{6}1b,{12}1h[12:1],
3,,3h[12:1],
{6}5q1[6:1],{12}5,
7h[6:1],{6},
{8}2/6,,
,7>1[8:1]/3<5[8:1],
{2},
{6}8/5,{12}7,
5,,3h[4:1],
{6}4,5,{12},2,
{6}2/6,{12}3,
5,,6,
{16}1,2,3,4,
1,2,3,4,
{16}1bV73[16:3],1,{8}5h[8:1],
,5,
{16}6V84[16:3],6,{8}2h[8:1],
,1,
{8}3,3h[8:1],
{16}7,7,4,5,
2,4,3,4,
1xh,1xh,1xh,1xh,
{8}5-1[8:1],2-4[32:3],
5,2,
{16}7,6,5,4,
5x/1,6/2,7/3,8/4,
{2}1bV75[8:1]/5bV31[8:1],
{16}1,2,3,4,
6,6,5,5,
{16}8,4,6,2,
7,4,5,3,
8,1,4,2,
7,4,5,1,
{16}4,5,6,7h[8:1],
,1,1,5h[8:1],
2,3,4,5,
8xh,8xh,8xh,8xh,
{16}5,4,3,2,
7,6,5,4,
1,2,8,7,
2,3,7,6,
{8}5x/1,2/6,
3/7,4/8h[8:1],
{24}5,4,3,2,1,8,
7,6,5,4,3,2,
{8}1/8b,{16}7<4[8:1],5,
{8}6,7/1,
,3,
{4}1/2,
{8}8/7,{16}2>5[8:1],4,
{8}3,2/8,
{16},,8,7,
1/6,2,3,4,
{2}5bw1[12:1],
4bw8[12:1],
{4}5b/7<5[12:1],
{12}4-8[12:1],3,2,
{2}4>3-5-2-6-1-7>8b[1:2],
{1},
{1},
{48}1b,2/8,3/7,4-2>3-5s1[16:5]/6-8<7-5-1[16:5],{12}5,{24},,
,,,,,,
,,,,,,
2/8,3,4,5,6,7,
{24}8,1,2,3,4,5,
7,8,1,2,3,4,
{12}5/2-6[12:1],2,2,
7-4[12:1],7,7,
{32}E3,E2,E1,E8,E7,E6,E5,E4,
D3,E2,D1,E8,D7,E6,D5,E4,
{4}D3/Ch[4:1],
{24}2,3,4,5,6,7,
{24}8,1,2,6/3,7,8,
1,2,3,4,5,6,
{2}1z5[8:1]/7z3[8:1],
{8}4x/2x>4[8:1],5,
6x,7,
5x/2x>5[8:1],6,
7x,8,
{16}2x,3,6x,7,
{24}1x,2,3,5x,6,7,
{32}1x,2,3x,4,5x,6,7x,8,
{64}D2h[64:15],A2h[32:7],D3h[64:13],A3h[16:3],D4h[64:11],A4h[32:5],D5h[64:9],A5h[8:1],D6h[64:7],A6h[32:3],D7h[64:5],A7h[16:1],D8h[64:3],A8h[32:1],{32}D1h[64:1],
{2}1x-5[48:83],
{48}2xh,3xh,,,,,,,8xh,7xh,,,
,,,,,,,,,,,,
{48}3xh,4xh,,,,,,,7xh,6xh,,,
{16},,1xh,1xh,
{48}2xh,3xh,,,,,,,8xh,7xh,,,
,,,,,,,,,,,,
{48}7bh/3b-5b[12:1],8h/4-6b[12:1],,{16},,,
{4},
{48}2h,3h,,,8h,7h,,,3h,4h,,,
{12}7,6,5,
{48}2h,3h,,,6h,5h,,,3h,4h,,,
{12}8,7,6,
{48}2h,3h,,,8h,7h,,,3h,4h,,,
{12}8>6p1[8:3]*>5v2[8:3],7,6,
{2}8bh,
{48}8h,7h,,,3h,4h,,,7h,6h,,,
{12}2h[12:1],,2h[12:1],
{48}7h,6h,,,2h,3h,,,6h,5h,,,
{12}1h[12:1],,1h[12:1],
5-2[12:1],2-8[12:1],8-4[12:1],
5x,{6},
{48}6bx-2b[8:1],5x-2b[48:5],,{16},,,
{4},
{48}7h,6h,,,1h,2h,,,6h,5h,,,
{12}2,3,4,
{48}7h,6h,,,3h,4h,,,6h,5h,,,
{12}8,1,2,
{6}3/5h[6:1],{12}4,
7/5>7[4:1],,6,
{4}5b/2,
{12}4-8[12:1],,3,
{4}2/4b,
{12}3/7>2[12:1],,6,
{4}7b/5,
{12}5/3-7[12:1],,4b,
{4}3/5s1b[8:1],
4/5,
{48}1b/8b,2b/7b,3b/6b,4b/5b-1b[16:1],,,,,,,,,
{12}3h[12:1],,3,
{48}7h,6h[48:7],,,{12}2,2,
{48}7h,8h[48:7],,,{12}4,4,
{48}7h/3h,2h[48:7]/6h,,,,,,,,,,,
7h/3h,8h[48:7]/4h,,,,,,,{12}4,
{48}7>5[8:1],6h,,,{12}1,1,
2h[6:1],{6},
{48}3bxh/7bh,4xh[48:7]/8h[48:7],,,,,,,,,,,
6/3h,2h[48:7],,,,,,,{12}6,
{48}3h,4h[48:7],,,{12}8,8,
{48}3h,2h[48:7],,,{12}6,6,
{48}3h/7h,4h[48:7]/8h[48:7],,,,,,,,,,,
3h/7h,2-6[12:1]/6-1[12:1],,,,,,,{12}1/5,
{2}2bx<7[12:1]/6bx>3[12:1],
{48}1bxs5[12:1],8z4[16:1],7,6x,5,4,{8}3bx,
{48}1b/8b,Cf/B7/B6/B2/B3,,,,,,,,,,,
6h[48:8],,,,{12}3,3,
{48}5h,4h[48:7],,,{12}1,1,
{48}6h/2h,3h[48:7]/7h,,,,,,,,,,,
5h/2h,4h[48:7]/1h,,,,,,,{12}1,
{48}5s1[8:1],6h,,,{12}2,3,
4h/5h/B4/C/B8,,,
{12}7/4,6,4,
8/3,1,2,
3/5,7,8,
6/1,5,4,
{8}8h[16:1]/3h[16:1],1h[16:1]/7h[16:1],
5h[16:1]/6h[16:1],3h[16:1]/4h[16:1],
{16}2,2,1,1,
8,8,7,7,
{1}B7h[16:15]/B6h[8:9]/E7h[4:3]/B2h[16:15]/E3h[4:3]/B3h[8:9]/Ch[16:3]/Ch[8:3]/Ch[16:9]/Ch[4:3]/Ch[16:15],
{2},
4x,
{4}5h[4:1]/6h[8:3],
,
,
5/4,
{2},
1h[4:1],
{4}4h[4:1]/2h[8:3],
,
,
3/4,
{2},
3h[4:1],
{8}6,4,
5,{32}5h,4h,,,
,,,,{8}3h[8:1],
{32},,,,3h,4h,,,
{8},5h[4:1],
,7<4[4:1],
,,
,,
{4}6h[8:7],
5,
{8},5,
,3h[8:1],
{8}4,4,
5,5,
{4}6h[4:1],
7h[4:1],
{2}8bqq3[1:1],
1h[4:1],
{2}3<1[1:1],
2h[4:1],
{4}1s5[1:1],
2,
3,
4,
{2}5<8[2:1],
4h[4:1],
{4}4-2[12:1],
B2/E2/B1/C,
5<8[8:1],
B7/E7/B6,
{4}5-2[8:1],
B1/B8,
4-6[12:1],
C,
{12}2/8,2,2,
1/7,7,7,
8/4,4,4,
5/3,5,5,
{12}6/4,5,4,
5/3,4,3,
{24}2,4,2,4,2,4,
2,3,2,3,2,3,
{48}1b,8,7,6,5,4,,,,,,,
{12}2x/8p4[12:1],,8,
2-6[12:1],2,2,
2b/7p3[12:1],,7,
{12}1-5[12:1],1,1,
1b/6<1[12:1],,6,
4pp2[4:1],4,4,
4b/8,,,
{12}7<4[12:1],7,7,
7b/8-4[12:1],8,8,
8/1<6[12:1],1,1,
1b/2>4[12:1],2,2,
{4}2/7xh[6:1],
{48}6h/2h,1h[48:7]/5h[48:7],,,,,,,,,,,
2h/6<4[4:1],7h/3h,{24}8h[24:5]/4h,,,,,
{4}A6f/E6/D6,
{6}7b<4[8:1],{12}1,
7,8,1,
{6}2b-6[8:1],{12}8,
2,1,8,
{4}7b<4[12:1]/5b-1[12:1],
5b/7b,
{24}2b,3,2,3,2,3,
2>5[8:1],3,2,3,2,3,
{6}2b,{12}8,
7,5,6,
{4}4b<6[12:1]/1b-4[12:1],
4b/1b,
{6}7b/5b,{12}2,
4/6,7,1,
3/5,8,1,
2b-5[12:1]/5b-1[12:1],2b/5b,2b/5b,
{6}2b/5b,{12}8,
5/7,6,1,
5/3,2,8,
7b<4[12:1]/5b-1[12:1],7b/5b,7b/5b,
{8}7b/5b/Cf,,
,4h[48:5]/1h[48:5],
Cf/B2/B3/B6/B5,,
,4h[48:5]/8h[48:5],
{4}Cf/B6/B2,
{48}5bh/1b-4<6b[12:1],6h/2h,,,,,,,,,,,
{2},
E
