&title=まだ、不定形
&artist=Juka_Box feat. カゼヒキ
&first=0.005
&des=かたち
&clock_count=4
&lv_5=13+
&inote_5=(138){4},,,,,,,,,,,5h[8:13],
{16},,,4h[16:21],{1},{4},{8}6,
5,4,3,
{4}5bp1[4:1],{8}6,7qq8[2:1],,,{4}1h[8:3],
{16},,,,,,B2,E5,{8}E4,6,5,7,
8>4[2:1],8,,,{2}6pp5[2:1],
{8},,,4,3,2,6,5,
{4}4q8[4:1],{8}3,2pp1[2:1],,,,8,
7h[2:1],,,2,3h[2:1],,,5,
6h[2:1],,,5pp8[8:7],{2}4qq1[4:3],
{8},,,,,,,1/8,
{4}7-3[4:1],{8}5,4qq5[8:5],,5,6,7h[2:1],
,,,,6,4,5,2,
1<5[2:1],1,,,{2}2pp1[2:1],
{8},,,4,2,6,5,7,
{2}8<3[2:1],1h[4:1],
2<5[2:1],3h[4:1],
{4}4>5[1:1],5h[4:1],,,,,{2}5-8[8:1]/4-1[8:1],
{4}2h[4:1],{8}4,5,{4}7h[4:1],{8}5,4,
3qq4[8:5],,,5,{2}5<8[8:1],
{4}7h[4:1],{8}5,4,{4}2h[4:1],{8}4,5,
6pp5[8:5],,,4,{2}4>1[8:1],
{8}2,3,4h[8:3],5,6,7h[8:3],1,2,
3h[8:3],6,7,8h[8:3],4,5,{4}6>1[2:1],
7,6qq3[1:1],{8},,,,8>3[4:1],
,,,,4-6[8:1],8,4V25[8:3],
{4}7,{8}5,6V85[8:3],{4}7,{8}5-1[4:1],4,
{2}3h[8:3],{4}4/3h[4:1],{8}4,5,
{2}6h[4:1],6h[4:1],
{8}5/6h[8:3],,,5,4,3h[8:3],6,5,
4b,{16}3,3,,5,{8}4,{16}5/7h[16:3],,,4,,,{8}2h[8:1],
4,{16}2,2,,5,{8}3,4/6h[8:1],{16}5,6,{8}4-8[8:1],3/5,
4V25[8:3],,,,,6pp4[2:1],7,5,
,4V25[4:1],2-6[8:1],1,{16},,,,7,4,6,2,
{8}8b-4[8:1],1,8>2<6[8:3],3,{4}8,5q1[4:1],
1q5[4:1],5<8[4:1],1-5[8:1],1,
{8}7,4,5>2[4:1],1,{4}2<7[4:1],7<4[4:1],
4V61[8:3],2-5[8:1],2,8/4,
{8}5-1[8:1],6,5>3<8[2:1],2,{4}5,8p4[4:1],
4>8[4:1],8<5[4:1],4-8[8:1],4,
{8}1/5,2,3,4/8,6,5,2/4,3,
7/5,6,4/3,5/2,6/5,7/4,{4}8/3,
{8}2-6[8:1],1,2>4>8[2:1],7,{4}2,8q5[4:1],
5<8[4:1],8>3[4:1],4-8[8:1],4,
5>1[4:1],6,4<8[4:1],3,
5p1[4:1],1p5[4:1],5>1[4:1],8,
{8}7<5[8:1],8,1,2,4-8[8:1],3,2,1,
2>4[8:1],5,6,7,5-1[8:1],8,7,6,
2,3,4,6,5,8,{16}1,7,3,5,
{2}4-8[4:1],4h[4:1],
{1}4>5[1:1],
5<4[1:1],
6<3[1:1],
4>5[1:1],
4qq4[1:1],
5<3[1:1],
5pp5[1:1],
{2}2pp1[8:5],{8}E6,E7,{4}E8,
{1}1h[4:3]/8h[2:1],
2h[4:3]/8h[2:1],
{2}7/3h[2:1],4h[2:1],
{8}5h[8:3],,,6,{4}7,7/8,
{16}1>4[2:1],,,,,,,5,{8}5p1[8:3],6,{16},7,,,{2}8<5[2:1],
3qq4[2:1],
{4}4,{16}5p1[8:3],5,,,7,,,6,,,{8}5,
4-8[4:1],{16}3,5,,,{8}6,7-3[4:1],{16}6,1,,,{8}8,
{24}A1,D2,A2,A4,D5,A5,D3,A3,D4,D6,A6,D7,{16}E5,E4,E6,C,7-3[8:1],1,5,3,
{8}7b,2,4/1-5[8:1],6,{4}1>4[8:1]*<6[8:1],1,
{8}5,6,4>1[8:1],8,{4}4/7-3[8:1],7/1-5[8:1],
{8}1-6[8:1],8,1-4[8:1],2,{4}1/8-5[8:1],8/6-3[8:1],
6/2-7[8:1],2/5-8[8:1],5/1-4[8:1],1/7-3[8:1],
{8}7V58[4:1],2,8-4[8:1],1,{4}2-6[8:1],5-1[8:1],
{8}5>2[8:1],4,5<8[8:1],6,{4}5/1-5[8:1],1<4b[4:1],
{8}4,{24}A3,D3,A2,{8}D2,1>5b[4:1],,5V38[8:3],6,7,
{4}8-4-1b[4:1],{8}7-3[8:1],6,{4}7,2-6[8:1],
{8}2,1,8,7,6-4[8:1],6,3,2,
1-5[8:1],1,5,6,7-3[8:1],7,8,1,
{4}2>6[4:1],6p1[4:1],7,8<5[4:1],
5>2[4:1],2<5[8:3],5,4-8[4:1],
{8}4,3,2>5[4:1],2,5,6,7p3[4:1],7,
8,1,2-5[4:1],2,1,8,7-3[4:1],7,
8,1,2,6,4,8,{16}2,6,3,5,
{8}4-8[8:3],,,4h[4:1],,,,,{2}4>5[1:2],
E6,
E5,E4,
{1}4qq1[4:7],
{2}E6,E7,
{1}8h[4:9],
{16}E2,,,,,,,,,E6,,,,,,,,,,E5,
{4}E4,{24},,,,,,E7,B6,{6}B5,
{24},,,,,,,,,,,,E3,B3,B4,E5,
E
