&title=チルノのパーフェクトさんすう教室
&artist=ARM+夕野ヨシミ(IOSYS)feat. miko
&first=0
&des=:谱师是八嘎忘记填了
&wholebpm=175
&demo_seek=77.6
&demo_len=22.4
&clock_count=4
&lv_7=觉
&des_7=
&inote_7=(175)
{1},
{1}Ch[1:2],1,1,2b,
{1}Ch[1:2],1,3,4b,
{1}Ch[1:2],3,4,7b,
{1}Ch[1:2],4,4,8b,
{1}Ch[1:2],8,3h,5b,
{1}Ch[1:2],7,4h,3b,
{1}Ch[1:2],8,6h,
2b,
{1}Ch[1:2],4,3h,
1b,
{2}Ch[1:2],,1,1,2,,
4b,,
{2}Ch[1:2],,1,3,2,,
6b,,
{2}Ch[1:2],,3,2,1h,,
4b,,
{2}Ch[1:2],,7,3h,2h,,
2b,,
{2}Ch[1:2],,5,2h,3,,
6b,,
{2}Ch[1:2],,8,6h,2,,
4b,,
{2}Ch[1:2],,2,8,6h,,
4b,,
{2}Ch[1:2],,4,6h,5,,
3b,,
{2}Ch[1:2],,5,7h,8,,
6b,,
{2}Ch[1:2],,1,7h,8,,
2b,,
{2}Ch[1:2],,8,5h,2h,,
1b,,
{2}Ch[1:2],,5,7h,8,,
6b,,
{2}Ch[1:2],,7,6h,4,,
5b,,
{2}Ch[1:3],,4,8,5h,2,,
{4},1b/8b,,
