&title=OUTRAGE
&artist=USAO vs DJ Myosuke
&first=0.2
&des=CRescent moon with「RAGE」
&lv_5=14
&des_5=CRescent moon with「RAGE」
&inote_5=
(215){4},,,,,,,,7bx/1xh[8:3],
{8}6,5,{2}4-8[8:1],
6h[4:1]/2h[4:1],7-5[8:1]/3-1[8:1],
{4}2bx/8xh[8:3],{8}3,4,{2}5-1[8:1],
{8}7,4,6,3,{4}7/2,B1/B8/B7/B6/B5/B4,
6bV84-7b[2:1],1,1,2,
3bV15-2[2:1]*V15-2[2:1],8,8,7,
6h[4:1],B1/E2/A1,3h[4:1],A8/E8/B8,
5h[4:1],E2/D2/A2,4h[4:1],{32}E7,B6,B5,B4,{8}E4,
{1}1b>1-4-2[2:3]*<1-6-8b[2:3],
{8},,,,,,,,7/4,
6,5,7/4,{16}6,5,{8}6,2/5,3,
4,2/5,{16}3,4,{8}3,{32}E1,B1/B8,B2/B7,E3/E7,,,,,{4}4x/5x,
{1}7bqq5<7b[2:1]/3bqq1>3[2:1],
{4}8h[4:1]/4h[4:1],{32}A7/A3,D7/D3,{16}A2/A6,{32},,,,A1/A5,B1/B5,Cf,B4/B8,{8}A4/A8,,,{4}1-4[8:1],
8/1-6b[8:1],2/1-3[8:1]*-3[8:1],7/1-7[8:1],
2/1-4b[8:1],6/1-5[8:1]*-5[8:1],1/3,2x/8x,
{8}3/7,7/3,{16}7x/3,2x/6x,5x/1x,8x/4x,{2}7x-2[8:1]/3x-6b[8:1],
{4}1b/5xh[2:1],2b,{2}3b-7b[8:1],
{4}8bx<5[8:1],1/8bxv3[8:1],7/8bxv5[8:1],2/8bx>3[8:1],
6/8bx<5[8:1],2/8bx-4[8:1],8bx/6,{16}5x,6x,7x,8x,
{4}1bx>4[8:1],8/1bxv6[8:1],2/1bxv4[8:1],1bx/7,
{8}2-5[8:1]/8b-5[8:1],3/7b,{4}2/8b,{16}6,3,6,3,7,4,7,4,
{8}8b-2[8:1],7b,{4}6b/8b-5b[8:1],8b/4,{8}1b/2,3b/8,
{16}6x,5,{8}7,2x/8x,3/7,{16}6,4,6,4,{4}5,
{32}1bh[2:3]/A3,D4,A4,D5,{8}A5,{32},,,,A7,D7,A6,D6,{4}A5,{32}A3,D4,A4,D5,{8}A5,
{32},,,,A7,D7,A6,D6,{4}A5,{2}2x-6[8:1]*-5[8:1],
{4}8h[4:3]/1-3[8:1],1,4-2[8:1],4,
3h[4:3]/5-7[8:1],5,8-6[8:1],8,
{8}4/2,2/4-7[8:1],,3,{4}3,8/3-5[8:1],
7-5[8:1],1w5b[8:1],{2}A1f,
{4}3/6-1[8:1],6/4-8[8:1],4/5,{8}1/7,2/6,
{2}5v8[8:1]/3v8[8:1],{32}E1,B1,{16}B2,{32},,,,E7,B6,{16}B5,,,{4}8<2[2:1],
1,2>8b[2:1],1,
{1}8bpp4[2:1]*qq4b[2:1],
{8}6,6,4,4,8,8,2,2,
{16}8,7,6,5,8,1,2,3,1,8,7,6,1,2,3,4,
{4}5-2[8:1]*<7b[8:1],A5f,4-7b[8:1]*>2[8:1],A4f,
{1}1bs5-7b[2:1]/8bz4-2[2:1],
{4}6/1-3[8:1],{8}6/1-5[8:1],7,{4}6/1-3[8:1],{8}6/1-5[8:1],7,
{4}6/1-3[8:1],{8}1/6,7,8/4,{16}8x/4x,7x/3x,{8}6x/2x,5x,
{4}5x-8[8:1],4/5-2[8:1],6/5<8[8:1],5/3,
{8}1-5[8:1]/2-6[8:1],3/8,{4}1/2,{8}7/4,1/8,5/2,{16}4,3,
{4}4x-7[8:1],3/4,{8}2-5[8:1],1,2/7-4[8:1],6,
{4}7/1-4[8:1]*-5[8:1],1,{16}7,8,{8}7,1/6,2/5,
{4}3/4-8[8:1],4/2-5[8:1],2/7v4[8:1],1/7,
{8}2v5[8:1]/8v5[8:1],3/7,{4}2/8,{16}4x/6x,3x/7x,{8}2x/8x,{4}2bx/8bx,
1-3<4[8:1],8/1-7<6[8:1],2/1-5-3b[4:1],{8}1/8,7,
{4}6-2[8:1]*-8[8:1],6x,{8}3x/5x,3x,4x/6x,6x,
{4}5x/3xv8b[8:1],3/7-5>4[8:1],7/2-6[8:1],2/8,
{8}3/5,2,4/6,7,{16}2,8,2,8,{4}3bx/7x,
4>6[4:1],4b/6,5<3b[4:1],5b/3,
4>6[4:1],4b/6,{8}5,5h[4:1],,1,
{4}1bh[16:1],2bh[16:1],3bh[16:1],4bp2[8:5],
{1}4<7b[8:3],
8x/1x<2[4:13],
E1,
C,
E5,
6h[1:1],
4h[1:1],
{4}8,7,6,5pp1[2:1],
{1}4-2b[4:1],
{4}1/7h[4:5],2,3,4,
{2}5-1[8:1],{8}6,6,{4}6,
8/2h[4:5],7,6,5,
{2}4-8[8:1],{8}3,3,{4}3,
{8}7/4,6,5,7/4,6,5h[8:1],,,2/5,
3,4,2/5,3,4h[8:1],{16},,,,1,
2,3,4,1,8,7,6,8,1,2,3,8,7,6,5,
{1}8bV24[2:1]*V64[2:1],
{4}5/3h[2:3],6,7,8,
{2}1-5[8:1],7v4b[8:1],
{4}6h[2:3],3,2,1,
{2}8-4[8:1],2v5b[8:1],
{8}7x/4-8[8:1],7,{4}7/4,{8}6x/2-5[8:1],6,{4}2/6,
{8}4x/6-2[8:1],4,{4}4/6,{8}3x/1-5[8:1],3,{4}1/3,
{8}6,6,5/7,7,3,3,2/4,2,
{16}7,1,7,1,6,2,6,2,{32}5,4,3,2,1,8,7,6,5,4,3,2,1,8,7,6,
{1}5bV31-4-2-5[2:3]*V71-6-8-5b[2:3],
,{32}6h[4:1]/E2,
E3,E4,E5,,,,,,,,,,,,,3h[4:1]/E8,E7,E6,E5,,,,,,,,,,,,,A3/A7,
D4/D7,A4/A6,D5/D6,{8}A5fh[8:5],,,,,,,{4}8-5[8:1],
{8}1/8-3[8:1],1,{4}7/8<5[8:1],8/2,
{8}1-5[8:1]/2-4[8:1],3/8,{4}1/2,{16}7,8,{8}6,3/5,2,
7bx-3[8:1],7bx,7/1-5[8:1],2,{4}1/6-8[8:1],6/2-4[8:1],
{8}2/1,8,{16}3x,4x,{8}3x,{32}8x,7,6,5,,,,,{8}2bx-6[8:1],2bx,
{4}2x/8-4[8:1],{8}8/3-1[8:1],2,{4}3/7-5[8:1],7/8,
{8}1v4[8:1]*v6[8:1],1,{4}1,{16}7,8,{8}7,3/6,2/5,
1v4[8:1],4,1,8v5[8:1],5,8,{4}1h[4:1],
{1}Ch[4:3],
{32}2/8h[4:1],3,{16}4,{32},,,,,,,,7/1h[4:1],6,{16}5,{32},,,,,,,,8/3,4,{16}5,,,6,
5,7,4,6,5,7,4,6,5,7,4,{4}8b,
{32}7/1h[4:1],6,{16}5,{32},,,,,,,,2/8h[4:1],3,{16}4,{32},,,,,,,,1/6,5,{16}4,{8}1x,
{16}2,5,3,4,2,5,3,4,{4}1w5[8:1],1,
{8}7-5[8:1],8-4[8:1],7-3[8:1],8-2[8:1],7<4[8:1],8,{4}7,
{8}1v4[8:1]/2v5[8:1],1/2,{4}1/2,{16}7,8,{8}7,{4}1b/6b,
{16}1,2,3,4,1,8,7,6,{32}B1,B2,B3,B4,B5,B6,B7,B8,E1,E2,E3,E4,E5,E6,E7,E8,
{1}E1/Cfh[1:1],
8b-4-6b[2:1]*-4-2[2:1],
{4}1b,2b,3b-1[8:1]*-8[8:1],3b,
7xv4[8:1],7/3,{8}1V35[4:1],7,1/5v3[8:1],6,
{4}8>3[8:1],8,{8}5-2[8:1],1,5/8-4[8:1],7,
{4}6/8<5[8:1],2/8>3[8:1],{8}8/6,6V84[4:1],,2/6,
{4}2-5-1b[4:1],2/7,{8}8,7,6/4,3,
{4}2xv5[8:1],2/6,{8}8<5[8:1],3,{4}8/1,
{8}2-4[8:1],1-5[8:1],2,1,,2/8,3/7,4/6,
5-1[8:1],5,,,4-1[8:1]*-7[8:1],4,{16},,,,8h[8:1],
,,3h[8:1]/7h[8:1],,,{8}4h[16:1]/6h[16:1],{2}5-1b[8:1]*-2[8:1],
{4}8b-5[8:1],{8}2/8-3[8:1],1,{4}6/8<5[8:1],2/8>3[8:1],
{32}6/8<5[8:1],A1,D2,A2,{8}D3,{32}2/8>3[8:1],A7,D7,A6,{8}D6,{32}8/6,A1,D2,A2,{8}D3,7,8,
{4}1-6[8:1],{8}3/1-4[8:1],2,{4}7/1<6[8:1],3/1>4[8:1],
{32}7/1<6[8:1],A2,D3,A3,{8}D4,{32}3/1>4[8:1],A8,D8,A7,{8}D7,{32}1/7,A2,D3,A3,{8}7/D4,{4}7,
{8}2/8,{16}3,4,{8}2,7,{4}2-5[8:1]/8-4[8:1],2/8<5[8:1],
{32}2/8>3[8:1],A7,D7,A6,{8}D6,{32}6/8<5[8:1],A1,D2,A2,{8}D3,{32}8/2,A7,D7,A6,{8}2/D6,{4}2,
3/4h[4:1],{32}5x,6x,7x,8x,1x,2x,3x,4x,{4}5x-2[8:1]*-8[8:1],5x,
1-3[8:1]*-4[8:1],1-6[8:1]*-7[8:1],1-5[8:1],1b,
6h[8:1],6h[8:1],3h[8:1]/5h[8:1],3h[8:1]/5h[8:1],
{8}4/3,1/2,8/7,6/5,7/2,5/4,{4}Cf,
{8}3,{16}3,4,{8}2h[4:1],4,6h[4:1],4,2h[4:1],4,
{16}7,5,7,5,{8}7,{16}3,4,,4,{8}2,{4}5/D1/E1/B1/E2/D2/A1,
{16}6,5,{8}7h[4:1],5,3h[4:1],5,7h[8:1],{16}4,6,4,6,
E2,E3,E4,E5,E1,E8,E7,E6,{2}1b-5[8:1],
{8}7,{16}7,8,{8}6h[4:1],8,2h[4:1],8,6h[4:1],8,
1-5[8:1],1,7-3[8:1],7,{4}1w5[8:1],1b,
{8}7-4[8:1],7,3-8[8:1],3,6-1[8:1],6,2-5[8:1],2,
{1}8bpp4[2:1]*qq4b[2:1],
{4}7/3-1[8:1],{32}3/E8,C,{16}E4,,,{4}2/6-8[8:1],{32}6/E2,C,{16}E6,,,{4}7/3-1[8:1],
{32}3/E8,C,{16}E4,,,{4}2/6-8[8:1],{32}6/E2,C,{16}E6,,,{4}7/3-1[8:1],
{32}3/E8,C,{16}E4,,,{4}2/6-8[8:1],{32}6/E2,C,{16}E6,,,{4}1b,
2b,3b,1x>5[8:1]/2x-5[8:1],
1bx-6[8:1]/2bx<6[8:1],1bxV35[8:1]/2bx-4[8:1],1bx/2bx,{8}7bx/8x,5x/4bx,
{4}2x>5[8:1]/1bx<6[8:1],2bx/1bx,8/1,{16}E1/B1,E5/B5,E3/B3,B7/E7,
{8}1-3[8:1],8-4[8:1],1-5[8:1],8-6[8:1],1>4[8:1],8<5[8:1],1,8,
{32}3,2,1,8x,,,,,6,7,8,1x,,,,,A4,A3,A2,A1,A8,A7,A6,A5,D5/E5,D4/E4,D3/E3,D2/E2,D1/E1,D8/E8,D7/E7,D6/E6,
{1}Cf,
E
