&title=パステル・シタイ
&artist=もちうつね feat.桃寝ちのい
&first=0.256
&des=57qx55uQ
&lv_5=13+
&des_5=57qx55uQ
&inote_5=
(170){4},{8},,,,,,3h[8:1],
5,3h[8:1],5,6h[8:1],4,6h[8:1],4,
3V17[4:1],3,{4}7q4[4:1],6,{8}5,5,
{4}6h[8:7],B5,{8}B3,,,B1,
,E8,E7,E6,A3,A2,{4}A1,
{8}7h[8:1],4,7h[8:1],4,2h[8:1],5,2h[8:1],5,
6V84[4:1],6,{4}4<5-1[4:1],3h[8:1],{8}2,2,
{2}8/1h[2:1],{8}7qq2[1:1],,,B3fh[8:7],
{1},{32}1b/8b,
7x/2x,6x/3x,5x/4x,,,,,,,,,{8}2,8<5[8:1],1>4[8:1],8,1p5[8:1],
,1x/2x,,3/4,{4}5v7[8:1]/2v8[8:1],5/2,
1xh[4:1],{24}7,6,5,4h[2:1],,,,,,,,,{8}3,2h[8:5],
,1,8,7,{4}6-3[8:1]*-1[8:1],6b,
2pp4[8:1],1/2,{8}7-4[8:1],1-5[8:1],7,1<6[8:1],
,1x/2x,,5/4,{4}6v1[8:1]/3v8[8:1],6x/3x,
7h[4:1],{24}1,2,3,4h[2:1],,,,,,,,,{8}5,6h[2:1],
,7,8w4[4:1],1,{2}8x,
{8}5b/3bh[4:1],5,6,6,5/7h[4:1],5,4,4V25[4:1],
,5pp1[2:1],6,7h[8:3],{24},,,,,,,,,,,,A8/B8,
D8,A7,D7,,,{8}2,{16}3,4,3,4,{8}3,4/5,5/6h[4:1],
{16},,4,4,{8}5,{16}6,6,3,7,{8}2h[8:1],{4}8,
{8}4/6h[4:1],4,3,3,4/2h[4:1],4,5,5-8-2[4:1],
,2pp6[2:1],3,4h[8:3],,,,,{4}7/5V31[8:1],
{8}7/5,8h[4:1],{32},,,,E2,B2,B3,E4,E8,B7,B6,E6,{8}1x,
{16},,6,6,{8}4,5,{32}1,2,3,4,5,6,7,8,{4}1/Cf,
{8}4b/3b>8[8:1],2,3/4,5,6-2[8:1],3-8[8:1],6,3,
,7/1,6/2,3h[4:1]/5-1[8:1],,5,{4}2,
{8}7/8-4[8:1],6-1[8:1],8,6,2,4/2-7[8:1],3/5h[4:1],2b,
{16},,3,4,{8}3,{16}7,5,{8}7,8/1,{16}2,4,3,5,
{8}4>1[8:1],3/6,4/5,6,8-3[8:1],7v4[8:1],8,7V51[4:1],
,7/3,3,2h[4:1],,8,7,6,
2>5[8:1],1-5[8:1],2,1,8-4[8:1],7,8,A6h[8:5]/B6h[8:5],
,,,,{2}1x-5[8:1],
{8}3b/4b<7[8:1],5,4/3,2,1-4[8:1],8p3[8:1],1,8,
,4/2,5/1,6h[4:1]/8-4[8:1],,8,{4}7,
{8}5/6-1[8:1],4-8[8:1],6,4,7,5/6-1[8:1],5/4,6b/3,
{16}2,3,4,5,8,7,6,5,3,4,2,5,1,6,8,7,
{8}1>4[8:1],2/8,1,7,5v2[8:1],6-1[8:1],5,6V48[4:1],
,3/6,3,2h[4:1],,7,6,5,
3>8[8:1],4-8[8:1],3,4,5,5w1[8:1],{32},,,,5b>5[8:5]*<5[8:5],B5,Cf,B1,
{1},{2}7b/3b,
{4}A8/D8/A7/E8,A1/D2/A2/E2,
5-8[8:1],5x,4-1[8:1],4x,
,E7,B2/B3,E6/B5/E5,
A1/E2/B2/D2,B7/A7/D7,E4/B4,5b,
{8}3h[4:1],4,5,6,3h[4:1],6,5,4,
5h[4:1],4,3,6,4h[4:1],5,6,3,
7>4q5[8:5],,,,,,,Cfh[8:5],
,,,,{2}B2/B1/E1/B8/B7,
{8}1b/8b,2,{16}5,3,6,4h[16:3],,,7,8,6,1,{8}5h[8:1],
{16}3,4,3,4,2,5,2,5,1,6,8,7,1,6,2,5,
3,4,3,4,{4}1h[8:3],{8},8h[4:1],,4h[8:1],
6,6h[8:1],7,7h[8:1],5,5,6-3[8:1]/4-7[8:1],5,
{4}4b/6b,{8}2,2h[8:1],1,8q4[8:1],7,8/6bh[8:1],
,5,{4}5<1[8:1],{2}4q2[4:1],
{8}5x-7[8:1],4,5,3x-8[8:1],4,3,6x-1[8:1],5,
6,2x>5[8:1],8,2,7xv4[8:1],1,{4}7b,
{6}5/3,{12}2,2,4,4,1,1,8,8,5,5,
{6}6x/4x,{12}7,7,1,1,4,4,3,3,6,6,
{6}5/7h[6:1],{12}5,4/6h[6:1],,4,5/3,5,5,4/6,4,4,
7,8,6,2,1,3,5,5,5,6/4,4/6,6/4,
{1}7b<7[2:3]/3bV17V53[2:3],
{2},,6h[1:3],
E5,
{4}B3,B2,B1,B8,
{1}7x>5[4:3],
{2},,3h[1:2],
E5,
{4}B6,B7,B8,B1,
{2}2x<6[4:1],{8}4xpp1[1:1],,,E8fh[8:7],
,,,,,,,,4b/3b-8[8:1],
2,3/4,5,6-4[8:1],7-3[8:1],6,7,
,4/2,1/5,8h[4:1]/6-2[8:1],,6,{4}1b,
{8}4/3v1[8:1],5-8[8:1],3,5,2,4/2-6[8:1],3/5h[4:1],2b,
{16},,7,8,{8}6,{16}3,4,{8}2,1/8,{16}7,5,6,4,
{8}5-8[8:1],6/3,5/4,4,3>8[8:1],7-3[8:1],3,7V51[4:1],
,7/4,4,3h[4:1],,8,7,6,
2>5[8:1],1-5[8:1],2,1,8-4[8:1],7,8,B6h[8:5]/A6h[8:5],
{32},,,,,,,,,,,,,,,,A5,D5,A4,D4,A3,D3,A2,D2,{4}A1/D1/E1/Cf,
{8}7b-4[8:1],6/8,7,3,2-8[8:1],5<8[8:1],2,5,
,5/3,6/2,7h[4:1]/1-5[8:1],,1,{4}8b,
{8}4/6-1[8:1],5>2[8:1],6,5,8,8p4[8:1],7/1,8b,
{16}3,2,1,8,5,6,7,8,2,1,3,8,4,7,5,6,
{8}4-8[8:1],5/3,4,6,7<4[8:1],1-4[8:1],7,1V75[4:1],
,1/2,3,3h[4:1],,4,5,6,
7<4[8:1],8-4[8:1],7,8,1,1w5[8:1],{32},,,,1b>1[8:5]*<1[8:5],B1,Cf,B5,
{1},{32}8b/1b,
2x/7x,3x/6x,4x/5x,,,,,,,,,{8}7,1>4[8:1],8<5[8:1],1,8q4[8:1],
,8x/7x,,6/5,{4}4v2[8:1]/7v1[8:1],4x/7x,
8h[4:1],{24}2,3,4,5h[2:1],,,,,,,,,{8}6,7h[2:1],
,8,8,1,{4}8-5[8:1]/1-4[8:1],1b/8b,
E
