&title=zephyrlasting
&artist=s-don × nitro(lowiro)
&first=1.6
&des=HibeRnLasTing
&lv_5=14+
&des_5=HibeRnLasTing
&inote_5=
(155){4},{8},,6/3h[8:1],{16}4,3,5,4,6,5,
{8}6>7[2:3],,,7h[8:1],,,{4}1h[8:1],
{8},4-8-2-6[16:21]*-8-2-6[16:21],,,,,,,4h[8:1],
,,7h[8:1],,,{4}8h[2:1],
{8}4,5,{16},5,6,4,{8}7,6/5,{4}8/3,
{8}2b>7-5-3[8:11],,,5h[8:1],,,{4}8h[8:1],
,,{2}7b<2-4-6[4:5],
{8}8h[8:1],,,4h[8:1],,,{4}2h[2:1],
{8},,,3,6,4h[16:3],{4}5h[16:1],
{32}3x/7h[16:1],4,{16}5,{32},,2/7h[16:1],3,{8}4,{32}2b/8<2[8:5]*<6[24:5]*<3[48:25],3,{16}4,,,,,,,,,,,,,{4}1pp4[4:1],
{8}8h[16:1],7h[16:1],{4}6h[16:1],
{32}6x/2h[16:1],5,{16}4,{32},,7/2h[16:1],6,{8}5,{32}7b/1h[16:1],6,5,4,3,2,{16}1-5-7[16:3]*-5-3[16:3],,,,1b,{32},,,,,,,,,,,,2b/7h[8:1],
3,4,5,,,,,8b/3h[8:1],7,6,5,,,,,1b/6h[8:1],2,3,4,,,,,{16}5/2,
3,4,3,5,4,5,4,6,5,6,5,7b,4,{8}6bh[8:1],
{16}5,6,5,6,4,6,4,6,4,5,4,6,3b,5,{8}4bh[8:1],
{16}8,5,6,5,8,4,5,4,7,3,4,3,{8}6b,5/4,
{16},,,6/3,5,4,3x,4,5,6/3,,2/7,{8}5h[8:1],4bx,
{4}2h[4:1]/C,{16}5,3,{8}8h[8:1],{16}5v7[8:1],7,{8}4,5,2h[8:1],
{16}5,3,{8}6h[8:1],{16}4,7,{8}3h[8:1],{16}7xv4[8:1],5,{8}8,{4}7,
3/6h[4:1],{16}2v5[8:1],5,{8}3,2,6,{4}8/4h[4:1],
{8}6,{16}3,5,,4z8[16:3]*v1[16:3],,6,,4,,,,,,,{4}2/7h[4:1],
{16}4,6,{8}1h[8:1],{16}4v2[8:1],2,{8}5,4/6,8h[8:1],
3h[4:1],5,{16}6,4,{8}8v5[8:1],3-8[8:1],8,3,7,
{4}6/2h[4:1],{16}5,1,6,3x,{8}7-4-6-1[4:1],2v5b[8:1],{4}7,
{8},,7h[8:1],6h[8:1],5h[8:1],4h[8:1],3h[8:1],2h[8:1],
1,8/1,4/6h[16:1],2,3/5h[16:1],{16}4,5,3,6,{8}4,
{16}6,3,5,4,{8}4/5,{16}3,4,{8}5h[16:1]/2h[16:1],{16}6,5,{8}7h[16:1]/4h[16:1],8h[8:1],
1,7/2,4h[4:1],{48}D8/E8,A7,{12}D7/E7,{8}5xh[4:1],{48}D2/E2,A2,{24}D3/E3,,,,,4x,{48},{16}5,
{8}2h[8:1],{16}5,4,{8}7h[8:1],{16}1,8,{4}2z6[8:1]/7-3[8:1],7/2,
{8}4x/5x,{16}4x,6,5,7,{8}8h[8:1]/4xh[8:1],{16},,7,5,6,2,4,3,
{8}7h[16:1]/2h[16:1],{16}5,4,{4}6h[8:1]/3h[8:1],{8}8/1x-5-3-8[4:1],7v4b[8:1],{4}1,
{8},,8/1,2,3/4,5,7/2,{16}6,4,
{8}5,2h[8:1],4,7h[8:1],{4}5,{8}3b,6b,
{4}8/1,6h[8:1]/3h[8:1],{2}4x/5b<2b[0.1936##0.5806],
{12}3h[12:1],4h[12:1],5h[12:1],6h[12:1],7h[12:1],8h[12:1],{2}1b>6b[0.1936##0.5806],
{6}7h[6:1],8h[6:1],1h[6:1],2b>6b[0.1935##0.5806],{12},,,,7h[12:1],
8h[12:1],1h[12:1],2h[12:1],3h[12:1],4h[12:1],{2}5b<1b[0.1936##0.5806],
{10}2b,3b,4b,5b,6b,7b>3b[0.1935##0.5806],{4},{16},,{64},{320},,,{14}4h[14:1],
5h[14:1],6h[14:1],7h[14:1],8h[14:1],1h[14:1],2h[14:1],3b<7b[0.1935##0.5806],{4},{16},,{64},,,{448},,,{10}8b,
1b,2b,3b,4b,5b<1b[0.1936##0.5806],{4},{16},,{64},{320},,,{14}2h[14:1],
3h[14:1],4h[14:1],5h[14:1],6h[14:1],7h[14:1],8h[14:1],1bw5[32:3]*-5[32:3],{16},,{64},,,{448},,,{48}1b,B1f,Cf,B5f/B6f/B4f,,,,,,,,,{2}6bxh[4:1]/4bxh[4:1],
{8}3/7,{16}6,4,5,2,4,3,
7,3,5,4,8,4,6,5,{8}7/3,6h[16:1]/3h[16:1],5h[16:1]/2h[16:1],4h[16:1]/7h[16:1],
{16}5b,6,4,7,3,8,2,1,3,8,4,7,6/5,,,4/5,
,4/2,{8}3b,{16}4/6,5b,7x,5x,6x,2,4,3,6,4,{8}5h[4:1],
{16},,3,5,4,4,6,3,5,3,7,4,6,4,8,5,
{8}7h[8:1],{16}3,6,4,6,2,5,3,5,1,6,2,7,3,8,
{8}4,3/7,2/6,4/5,{16}7,1,5,2,8,4,8,1,
{4}2/7h[8:1],4/2h[8:1],5/7h[8:1],7/2h[8:1],
5h[#0.3871002]/4pp1>3[0.3871##0.9677],,,,{2}7h[4:1]/E5h[4:1]/B4h[4:1]/B5h[4:1],
3h[4:1]/E1h[4:1]/B1h[4:1]/B8h[4:1],
{1}E7/E3,
{32}E6,B5,{16}B4,{32}E2,B1,{16}B8,{4}E7/E3/Ch[4:1],{24}B6/B2,B7`B3,B8`B4,E1`E5,,,{8}B8/B1/B5/B4,Cfh[8:1],
{4}B7/E7/B6/B2/E3/B3,{8}4/5,5h[8:1]/4h[8:1],,,{4}3-5-7-1[8:5],
{8}6h[4:1],,,1-3-5-7[8:5],,,{4}5,
{8}7-1-3[8:3],,,5,,,{4}6qq3[8:5]/2qq7[8:5],
,,,6bh[8:1]/2bh[8:1],
{32}1x/7h[16:1],2,{16}3,{32},,7/3h[16:1],6,{8}5,{32}2/6h[8:1],3,4,5,,,,,,,,,{8}1bv4b[32:3],{16}7x,2x,
{32}1/8bxv5[0.2903##0.1452],7,6,5,,,8x/1bxw5[0.2903##0.1452],2,3,4,{64},,,,1bx,,,Cf,,B6/B5/B4,,,,,,,,,,,,,,,,,,,{8}3/6h[8:1],{16}4x,5x,
{32}8b/3bxh[8:1],7h,6h,5h,,,2b/6bxh[8:1],3h,4h,5h,,,8b/2bxh[8:1],7h,6h,5h,{4}4h,{8}5h[8:1],{16}8x,3x,
{32}1/2b,3,4,5x,,,7b/8,6,5,4x,,,1b/2b,3/8,7/4,5x/6xh[32:9],,,,,,,,,{8}4,{16}3,6,
7h[8:1]/4h[8:1],,,1h[8:1]/2h[8:1],,,{8}5h[8:1]/4h[8:1],{16},7h[16:5]/1h[8:1],,,{8}2b,4b,
{16}3h[8:1]/2h[8:1],,,7h[8:1]/5h[8:1],,,{8}8h[8:1]/2h[8:3],{16},7b,,,{8}5b,6/3,
{16}5h[32:1],4h[32:1],6h[32:1],3h[32:1],{24}4b,5,4,5,{12}4,{24}3,4,2,4,{12}3,{24}6,5,7,5,{12}6,
{4}4x/7xqq4[8:5],3/7,2v5[8:1],2b,
{8}2/6-8[12:1],5,{32}1/6,2,3,4,{8}5,1-4[8:1],7-4[8:1],1,7,
1-3[12:1],1,{32}8/1,7,6,5,{8}4,2-6[8:1],8-4[8:1],2,8,
2-8[12:1],3,{32}7/2,6,5,4,{8}3,2q6[8:1],8p4[8:1],2,8,
3,{16}6b,7/5,,2b,{8}1/3,{24},,,1x/8x,2,3/7,6,5/2,3,6x/4x,,,5x,
6,5,7b/4,{48},,,,,,,{16}3/6b,,5bh[4:1]/2h[16:5],{32},,,,,,,,4bx,3,2,1,8,7,{16}6b,
{24}4x,5,4,3b/6,{48},,,,,,,{16}2b/7,,2bh[16:3]/7h[16:3],{48},,,,,,,,,,,,{24}1/8,2,3/7,6,5/2,3,
4x,5x,4x,5b,,,{8}2,{16}5,3,4,6,5,7,5,{48}6,,5,,7,,{16}4,
{4}8x/5bxv8[32:3],{48}8/5,E8,B7,B6,{6}E6,1/4bv1[32:3],{48},,,,1/4,E2,B2,B3,{6}E4,
{16}2,1,3,8,4,7,{8}5h[8:1],{16}6,5,7,4,8,3,1,2,
3,2,4,1,5,8,{8}6h[8:1],{16}7,6,8,6,1,6,2,7,
2,8,2,1,2,3,{8}2h[8:1],{16}6,1,4,3,1,6,{8}8,
{48}7b,E7,B6,B5,{24}E5,{48}2b,E3,B3,B4,{24}E5,{48}8,E8,B7,B6,{24}E6,{48}1,E2,B2,B3,{24}E4,{8}7xh[8:1],1-6[8:1],8-3[8:1],1bx-3-5-2v7[8:5]*-3-5-2v7[8:5],
{4}8bx,{8},,,,1b-7v4-6b[2:1]*-3[8:1],8,
1,,,2,{16}3,,,4h[16:3],,,{8}7,
6h[4:1]/3h[4:1],,,1/7-4[8:1],8,7/1-6[8:1],2,1/3-8[8:1],
4,3/5-2[8:1],6,5/7-4[8:1],8,7/1,{4}1b-7-5z1[4:3]*-3-5s1[4:3],
{1}1b,
{8}7h[8:1]/B3/E3/E4,,,1/5h[8:1],,,{4}3/C,
{1}6pp4[2:1]/3qq5[2:1],
{32}2h,3,{16}4,{32}7h,6,{16}5,,4,5,3,{4}6,{8}7/2q4[2:1],1,
6q8[2:1],7,{16},,,,,,,,,,,,7,
,,5/4,,,{8}2,{2}6h[4:1]/3h[4:1],
{16}2/C,,,7/C,,,{8}B7/E7/B6/B2/E3/B3,,8/2v5[8:1],1/7v4[8:1],2,
{16}7,,,3,{8}6,5/4,{4}1s5[8:1]/8z4[8:1],8b/1b,
{32}2xh[16:1]/7xh[16:3],,,3bx,4,5,,6bx,5,4,{16}3,,,{4}6h[16:1]/3h[16:1],2/7,
{16}4,5b-2[48:5]*v8[48:5],2,7,4,5,,,6,3,8,5h[16:3],,7,,3,
{8}5,{16}4,6,{8}3,{16}3,6,4,5,2,7,2,5,{8}4,
6h/3h,{16}1,8,4,5,2,7,{4}6h[8:1]/3h[8:1],7h[8:1]/4h[8:1],
{16}5b,6,4,7,5,4,6,3x,{32}6bh,5,{16}6,4,5,{32}3bh,4,{16}3,5,4,
{20}7bh,2,5,4,1,8,3,6,1,8,{14}1bh,7,1,8,2,8,1,
{32}7b/2b,6,5,4,{8}3h[8:1],,2h[8:1],4h[8:1],6h[8:1],8h[8:1],1b,
{32}2b/7b,3,4,5,6,7,8b,7x,6,5,4,3,2b,3x,4,5,6,7,8,1,2b/7b,6,5,4,3,2,1,8b/1bx,7/2,6/3,{16}5bh[16:1]/4bh[16:1],
,,,5x>7[16:23],,,{8}4x-2-8-6[8:11]*-2-8-6[8:11],
E
