&title=Antithese
&artist=Blacklolita
&first=0
&des=一轮游也够
&lv_5=14+
&inote_5=(172){16},,,,,,,,,,,,,,,,
,,,,,,,,,,,,,,,,
5b<4[4:6]/4b,,,,,,,,3,,,,,,,,
2,,,,,,,,1,,,,,,,,
1>8[4:6],,,,,,,,7,,,,,,,,
6,,,,,,,,5,,,,,,,,
5pp2[4:6],,,,,,,,1,,,,,,,,
2,,,,,,,,3,,,,,,,,
4qq7[4:6],,,,,,,,8,,,,,,,,
7,,,,,,,,6,,,,,,,,
5xh[4:1],,,,4,,4,,5,,3,,6>4[8:1],,,,
3,,,,3,,3,,5,,4,,6-4[8:1],,,,
2,,,,3,,5,,4,,6,,5-2[8:1],,,,
7,,,,6,,6,,4,,5,,3-6[8:1],,,,
7,,,,8,,8,,5,,6,,4-7[8:1],,,,
2,,,,1,,1,,6,,4,,5-2[8:1],,,,
7,,,,8,,8,,2,,4,,3-7[8:1],,,,
8x-6[8:1]*-4[8:1],,,,,,,,3,5,2,6,1,7,2,8,
3b,,3,4,2h[4:1],,1,,6h[4:1],,8,,5-1[8:1],,4,,
3bV51[4:1],,,,7,,7,,6h[4:1],,2,,3h[4:1],,8,,
7,,6,5,7h[4:1],,8,,3h[4:1],,1,,4-8[8:1],,5,,
6bV48[4:1],,,,2,,2,,3xb<6[8:1]*>8[8:1],,,,,,,,
7,,7,5,6h[4:1],,8,,2h[4:1],,1,,4-8[8:1],,5,,
6bV84[4:1],,,,2,,2,,3h[4:1],,6,,7h[4:1],,5,,
4,,4,5,3h[4:1],,1,,7h[4:1],,8,,5-1[8:1],,4,,
3x,,2,3,4h[8:1],,7,6,5x-3[8:1],,1x-5[8:1],,5x,,1x,,
6b,,6,5,7<4[8:1],,8,,1-5[8:1],,2,,6-2[8:1],,7,,
8bV64[4:1],,,,3,,3,,2h[4:1],,5,,6h[4:1],,4,,
3,,3,4,2>5[8:1],,1,,8-4[8:1],,7,,3v6[8:1],,2,,
1bV35[4:1],,,,7,,7,,8bx-5[8:1]*-3[8:1],,,,,,,,
7/4,,6,5,7<4[8:1],,8,,1-5[8:1],,2,,6-2[8:1],,7,,
8bV62[4:1],,,,3,,3,,4h[4:1],,1,,7h[4:1],,2,,
1,,2,4,3-5[8:1],,7-3[8:1],,3,,7,,4-8[8:1],,5/6,,
2x/4x,,1,2,3h[8:1],,7,6,5h[8:1],,1,,2,4,3,5,
4bqq8[4:2],,,,,,7x-5[8:1],,7,,,,,,,,
2x/4x,,,3/5,,,6x/4x<2[4:1],,7-3[8:1]b/5,,,,,,,,
4xqq7[4:2]/5x,,,,,,6x,,6h[8:2],,,,,,,,
7x/5x,,,6/4,,,3x/5xV38[4:1],,2-6[8:1]b/4,,,,,,,,
7xV58-4[8:3]/4x,,,,,,2x,,2h[4:1],,,,5,6,7,8,
3x/1x,,,2/8,,,7x/1xV74[4:1],,6-2[8:1]b/8,,,,,,,,
3xV14-8[8:3]/8x,,,,,,6x,,6h[4:1],,,,1,2,3,4,
7x/5x,,,2/4,,,3x/6x-1[8:1],,8b/1b-5[8:1]b*-4[8:1],,,,,,,,
6x/2x,,4V25[4:1],5,3,,5x-1[8:1],,6<4[4:1]b,,,,,,,,
1x,,2,4,3V51[4:1]b,,5x,,7b>5[4:1],,,,,,,,
1x,,2,4,3V52-6[8:3],,5x,,7>5[4:1]b,,,,,,,,
1x,,2,4,3-7[8:1],,5x,,5<8[8:1]*>2[8:1],,,,,,,,
7x-3[8:1]/1x,,,,3-5[8:1],,2x,,1-5[8:1],,,,6x-1[8:1],,,,
2x-6[8:1],,,,6-4[8:1],,7x,,8-4[8:1],,,,3x-8[8:1],,,,
7x-3[8:1],,,,3-6[8:1],,2x,,1-4[8:1],,,,5xv2[8:1],,,,
7x-4[8:1],,,,3-7[8:1],,2x,,1<6[8:1]*>4[8:1],,,,1x,,,,
7b/3bx,,6,5,6x,5,6h[8:1],,1x,,3,4,3x,4,3h[8:1],,
8x,,6,4,6x,4,6h[8:1],,1x,,3,5,3x,5,3h[8:1],,
8x,,6,4,5x,3,4h[8:1],,1x,,3,5,4x,6,5h[8:1],,
8x,,6,4,5x,3,4,2,8xh[8:1],,3,5,4x,6,5,7,
1bx-5[8:1],,2,,6x-1[8:1],,7,,2x-6[8:1],,3,,8x>3[8:1],,7,,
5x-2[8:1],,4,,7x-3[8:1],,6,,1x<6[8:1],,2,,4x,,4,,
3x,5,2,6,1,7,2,8,3,7,4,6,2,5,3,4,
1b<6[8:1]b*>4[8:1]b,,,,,,,,1,7,4,6,2,5,3,7,
1b-5[8:1],,,6,1,,7,,1-5[8:1]/4,,,3,1<6[8:1],,2,,
1/4-7[8:1],,,5x,4-1[8:1],,2,,4b/8b-4[8:1]b,,,,5/8,,6,7,
8b-4[8:1]/2b,,,3,8,,2,,8-4[8:1]/5,,,6,8>3[8:1],,7,,
8/5-2[8:1],,,4x,5-8[8:1],,7,,5b/1b-5[8:1],,,,4<7[8:1]b/1,3,2,1,
8b-4[8:1]/4b,,,3,8>3[8:1],,2,,5-2[8:1]/8,,,7,5-8[8:1],,6,,
5/1-5[8:1],,,3,1<6[8:1],,2,,1b/4b-1[8:1]b*-7[8:1]b,,,,4b,,,,
{24}8bx/2bx,3,4,{16}5,{24}1bx,2,3,{16}4,6bx/2bx,,{24}7bx/3bx,6,5,{16}4,{24}8bx,7,6,{16}5,7bx/3bx,,
{24}8bx/1bx,2,3,{16}4,5bx/1bx,,,6,4,5<8[8:1]b*>2[8:1]b,,,,,,,,
1b-5[8:1]/7b,,,6,1<6[8:1],,7,,4-7[8:1]/1,,,2,4-1[8:1],,3,,
4/8-4[8:1],,,6,8>3[8:1],,7,,8b/5b-2[8:1],,,,5b/7b,,6,5,
4b/1b>4[8:1],,8,7,1,,6,,7-3[8:1]/5,,8,4,7,,1h[8:1],,
{24}7,6,5,1,2,3,8-4[8:1]b,7,6,2,3,4,{16}5b>2[8:1]/8b,,,,1,8,7,6,
5b-1[8:1]/1bx,,,2,5>2[8:1],,3,,5/8-4[8:1],,,6,8>3[8:1],,7,,
8/5-2[8:1],,,4x,5-8[8:1],,7,,5b/1b<6[8:1]*>4[8:1],,,,1b,,,,
{24}3b/7b,6,5,{16}4,{24}8b,7,6,{16}5,3b/7b,,{24}2b/6b,3,4,{16}5,{24}1b,2,3,{16}4,2b/6b,,
{24}1b/8b,7,6,{16}5,4bx/8bx,,,3,5,4w8[8:1],,,,,,,,
6x,,6,5,7h[4:1],,8,,3h[4:1],,1,,4-8[8:1]b,,5,,
6bV48[4:1],,,,2,,2,,3h[4:1],,7,,6h[4:1],,1,,
2,,3,4,2h[4:1],,1,,6h[4:1],,8,,5-1[8:1]b,,4,,
3bV51[4:1],,,,7,,7,,6xb>3[8:1]*<1[8:1],,,,,,,,
2,,2,4,3h[4:1],,1,,7h[4:1],,8,,5-1[8:1]b,,4,,
3bV15[4:1],,,,7,,7,,6h[4:1],,4,,2h[4:1],,8,,
7,,6,5,7h[4:1],,8,,3h[4:1],,1,,4,,5,,
6x/4x,,7,5,6,,3,4,1x-5[8:1],,6x-1[8:1],,1x,,6x,,
3,,3,4,2-6[8:1],,8-5[8:1],,2,,8,,3-7[8:1]b,,2/4,,
1bV35[4:1]/3b,,,,6,,6,,7-3[8:1],,8,,4-1[8:1],,5,,
6,,6,8,7-3[8:1],,1-4[8:1],,7,,1,,6-2[8:1]b,,5/7,,
6b/8bV62[4:1],,,,3,,3,,4bx<7[8:1]*>1[8:1],,,,,,,,
2,,3,4,2-6[8:1],,8-5[8:1],,2,,8,,3-7[8:1]b,,2/4,,
3b/1bV37[4:1],,,,6,,6,,5-8[8:1],,4,,2-6[8:1],,3,,
8>3[8:1],,7,,5-2[8:1],,4,,7-3[8:1],,6,,1,,1,,
5,2,4,3,6,5,7,1,{24}8b,7,6,2b,3,4,{32}7b-3[8:1]b,6,5,4,1b,2,3,4,
{32}7b/5b<3qq7[4:12],B7,Cf,B3,,,,,{16},,,,,,,,,,,,
,,,,,,,,,,6,,6h[4:1],,,,
,,,,5,,5,,,,4,,4h[4:1],,,,
,,,,5pp3[4:7],,5,,,,2,,2h[4:1],,,,
,,,,1,,1,,,,8,,8h[4:1],,,,
,,,,1p8[4:3],,1,,,,7,,7h[4:1],,,,
,,,,5p4[4:3],,5,,,,3,,3h[4:1],,,,
,,,,2,,2,,,,1z5[8:7],,1s5[4:3],,,,
,,,,,,,,,,,,,,,,
