&title=プロポーズ
&artist=ヰ世界情緒
&first=0.019
&des=情感爆发段要怎么写谱
&clock_count=3
&wholebpm=126.000
&lv_5=14+
&des_5=
&inote_5=(126)
||
3/4
{4},,,
{4},,,
{16}4qq5[4:2],,,,
,,,,
,,,,
{16}6<4[4:2],,,,
,,,,
,,,,
{16}5qq4[8:3],,,,
,,6pp8[16:5],,
,,,,
{16}1qq8[8:3],,,,
,,,,
,,,,
{16}1pp8[4:2],,,,
,,,,
,,,,
{16}7<1[4:2],,,,
,,,,
,,,,
{16}8p4[16:5],,,,
,,2q6[16:5],,
,,,,
{16}1p5[8:2]*q5[8:2],,,,
,,,,
,,,,
{16}8b,,3,4,
3,,25,,
6,5,7h[8:1],,
{16}1,8,2<6[6:1],,
4,,82,,
,,4,,
{16}35,,6,5,
7,,2h[4:1]/8>3[8:1],,
,,8,,
{16}4pp5[4:1],,,,
2,,8h[4:1],,
,,,,
{16}1b,,6,5,
6,,74,,
3,4,2,,
{16}7,8,6q3[16:3],,
5,,36,,
,,5,,
{16}4,,3,4,
2,,45,,
6,5,7,,
{16}2,1,3>7[16:3]*p6[16:3],8,
4,,3,,
,,,,
{16}1bh[8:1],,3,3,
,4,2>5[12:1],,
18,,7,,
{16}6h[8:1],,8,8,
,6,5-8[12:1],,
87,,54,,
{16}2h[8:1],,1,1,
,3,3<6[12:1],,
1,,3,,
{16}8h[8:1],,6,8,
2,,1h[8:1],,
3,1,7,,
{16}8h[8:1],,6,6,
,5,7<4[12:1],,
18,,2,,
{16}3h[8:1],,1,1,
,3,4-1[12:1],,
12,,45,,
{16}8b<2[8:3],,,,
1,,2>8[8:3],,
,,1,,
{16}8>4[4:1],,,,
4,,5,,
,,6,,
{16}78,,81,,
12,,34,,
45,,65,,
{16}7,5,6,1,
4,3,8z4[8:13],,
,,,,
{64}A7,B7,,,{16},,,
,,,,
,,,,
{64}A2,B2,,,{16},,,
,,,,
,,,,
{64}A5,B5,,,{16},,,
,,{32}4,3,2,1,
8w4b[12:1],7,6,5,4,,,,
{16}A8/B8/Cf/B4/A4,,,,
,,26,,
1,7,8,,
{16}6<1[8:1]/5,,3,3,
6,,4>1[8:1],,
8,8,4,,
{16}6>3[8:1],,2,2,
6,,1<6[8:1],,
7,7,1,,
{16}5b-3<1[8:3],,,,
1,,2,,
3-7[8:1]*-8[8:1],,4,,
{16}3,,,,
1,,{32}5,4,3,2,
1>4[8:1],8,7,6,5,,,,
{16}1b,,7<4[8:1],,
8,,73,,
2q5[4:1],,1,,
{16}25,,6p3[4:1],,
7,,63,,
2>8[4:1],,1,,
{16}28,,,,
1,,{32}2,3,4,5,
6,7,8,1,,,,,
{16}3/7,,6,,
5,,24,,
3,5,4,6,
{16}8b>7[16:5],,,,
7,,8-6-4-2[4:1],,
,,1,,
{16}8>7[16:5],,7,,
6,,5h[4:1],,
,,,,
{16}1b/8,,3,4,
2,,18,,
6,5,7,,
{16}1/2-6[8:1],,4,,
1-5[8:1]/2,,7,,
1/8-4[8:1],,6,,
{16}7bV53[4:1]/8,,,,
3,,2V46[4:1],,
,,6,,
{16}7V53[4:1],,8,,
1,,8q1[4:1],,
,,,,
{16}Cf,,,,
,,2<7[8:1],,
3,,4,,
{16}5>2[8:1],,6,,
7,,8-4[8:1],,
1,2,3,,
{16}3,,3w7[8:1],,
3,,3`Cf,,
,,,,
{16}5,,5w1[8:1],,
5,,5`Cf,,
,,,,
{16}A7/B7/E8/E4/B3/A3,,,,
,,1-6[8:1],,
2,,3,,
{16}4-1[8:1],,5,,
6,,7p3[8:1],,
8,1,2,,
{16}2>6[16:3],,,,
7,,7h[4:1],,
,,8,,
{16}2qq5[8:3]/6pp4[8:3],,,,
,,,,
,,,,
{16}B8,,,,
,,7>2[8:1],,
6,,5,,
{16}4<7[8:1],,3,,
2,,1-5[8:1],,
8,7,6,,
{16}6,,6w2[8:1],,
6,,6`Cf,,
,,,,
{16}4,,4w8[8:1],,
4,,4`Cf,,
,,,,
{16}A6/B6/E6/E2/B2/A2,,,,
,,8-3[8:1],,
7,,6,,
{16}5-8[8:1],,4,,
3,,2,,
1,,8,,
{16}73,,{24}4,5,3,
{16}4,,26,,
{24}5,4,6,{16}5,,
{16}74,,{24}3,4,3,
{16}2,,65,,
{24}7,6,7,{16}8,,
{24}2b,1,2,1,2,1,
2,1,2,1,2,1,
2,1,2,1,2,1,
{24}2,3,2,3,2,3,
2,3,2,4,2,5,
2,6,2,7,2,8,
{24}3b,1,4,1,5,1,
6,1,7,1,6,1,
5,1,4,1,3,1,
{24}2,1,8,1,7,1,
6,1,5,1,4,1<4b[6:1],
3,1,2,8,1,8,
{16},,,,
,,82,,
3,4,3,,
{16}87,,6,5,
6,,12,,
3,5,4,6,
{32}7-3[12:1]/3,2,1,,{16}6,,
7,,{32}4/1-5[12:1],5,6,,
{16}2,,1,,
{32}8,7,6,5,4,3,2,1,
{16}8,,2bh[4:1]/6bh[4:1],,
,,,,
{16}8b,,2>5[8:1],,
1,,2b/6,,
7p4[4:1],,8,,
{16}7b/4,,3q6[4:1],,
2,,3b/6,,
7<1[4:1],,8,,
{16}7b/1,,,,
8,,{32}7b,6,5,4,
3,2,1,8,,,,,
{16}6b/2b,,3,,
4,,75,,
6,4,5,,
{16}3>8[8:1]/4,,6,6,
3,,5<8[8:1],,
1,1,5,,
{16}3<6[8:1],,7,7,
3,,8>3[8:1],,
2,2,8,,
{16}4b-6>8[8:3],,,,
8,,7,,
6q4[16:3],,5,,
{16}6,,5w1b[16:3],,
5,,,,
,,,,
{32}3/7b,6,5,4,,,,,
1,,,,6/2b,3,4,5,
,,,,8,,,,
{32}7b/4b,63,52,41,,,,,
1,,,,2b/5b,36,47,58,
,,,,8,,,,
{32}7b/3b,62,51,48,,,,,
1,,,,2b/6b,37,48,51,
6-2b[12:1],7,8,1,2,3,4,5,
{16}8b/6b`Cf,,,,
,,75,,
6,4,5,3,
{16}1b<2[16:5],,,,
2,,1-3-5-7[4:1],,
,,8,,
{16}1<2[16:5],,2,,
3,,4h[4:1],,
,,,,
{16}8b/1,,6,5,
6,,81,,
3,4,3,,
{16}8/7p3[8:1],,5,,
8p4[8:1]/7,,2,,
8/1p5[8:1],,3,,
{16}2bV46[4:1]/1,,,,
6,,7V53[4:1],,
,,3,,
{16}2V46[4:1],,1,,
8,,1p8[4:1],,
{32},,,,6,5,4,3,
{32}Cf,,,,,,,,
,,,,34,,,,
5,6,7,8,12,,,,
{32}7-3[8:1],,,,2,3,4,5,
7,,,,1-5[32:3],2,3x,4p6[16:3],
6,7,8,1,,,,,
{32},,,,,,,,
,,,,65,,,,
4,3,2,1,87,,,,
{32}2-6[8:1],,,,7,6,5,4,
2,,,,8-4[32:3],7,6x,5q3[16:3],
3,2,1,8,,,,,
{32},,,,,,,,
,,,,34,,,,
5,6,7,8,12,,,,
{32}8-4[8:1],,,,2,3,4,5,
8,,,,1-5b[32:3],2,3,4p6[16:3],
6,7,8,1,,,,,
{32},,,,,,,,
,,,,65,,,,
4,3,2,1,87,,,,
{32}1-5b[8:1],,,,7,6,5,4,
1,,,,7,,3,,
6,,2,,5,,1,,
{32}A8f/7b-3[8:1],,,,2,3,4,5,
7,,,,4>1[8:1],,,,
5,6,7,8,4,,,,
{32}7-3b[8:1],,,,2,3,4,5,
7,,,,1w5[64:7],2,3x,4,
6>7b[4:1],7,8,1,,,,,
{32}A5f/D6/D5,,,,,,,,
,,,,5<8[8:1],,,,
4,3,2,1,5,,,,
{32}2-6b[8:1],,,,7,6,5,4,
2,,,,8w4[64:7],7,6x,5,
3<2b[4:1],2,1,8,,,,,
{32}A4f/D4/D5,,,,,,,,
,,,,5>2b[8:1],,,,
6,7,8,1,5,,,,
{32}8-4b[8:1],,,,2,3,4,5,
8,,,,1w5[64:7],2,3,4,
6>7b[4:1],7,8,1,,,,,
{32}A5f/D6/D5,,,,,,,,
,,,,4<7b[8:1],,,,
3,2,1,8,4,,,,
{32}1-5b[8:1],,,,7,6,5,4,
1,,,,8w4b[64:7],7,6,5,
4w8b[64:7],3,2,1,8,,,,
{16}Cf/B6/B2/A2/A6,,,,
,,87,,
3,4,3,,
{16}76,,2,3,
2,,65,,
78,,34,,
{16}21,,6,5,
6,,32,,
7,6,7,,
{16}43,,8,7,
8,,43,,
21,,78,,
{16}62,3,4,5,
62,,73,6,
5,4,73,,
{16}62,3,4,5,
62,,73,,
45,,18,,
{16}37,6,5,4,
37,,26,3,
4,5,26,,
{16}37,6,5-8b[12:1],4,
3,2,1b,,
,,,,
