&title=Bamboo on Bamboo
&artist=Sampling Masters MEGA
&first=0.13
&des=WYBXXJ
&lv_5=14
&des_5=WYBXXJ
&inote_5=
(200){4}2-4[8:1],{8}2,8-6[8:1],,8,{4}1-3[8:1],
{8}1,7-5[8:1],,7,{4}4-8[8:1],4/5,
7-5[8:1],{8}7,1-3[8:1],,1,{4}8-6[8:1],
{8}8,2-4[8:1],,2,{4}5-1[8:1],5/4,
{8}2,3,4,5<8[8:1],,3,{4}2>5[8:1],
{8}8,7>2[8:1],,5,{4}4-8[8:1],4/5,
{8}7,6,5,4-1[8:1],,6,{4}7-4[8:1],
{8}1,2-5[8:1],,6,{4}7h[4:1],{16}5,4,3,2,
{8}8b/1-5[8:1],8,1/8,8,8/6-2[8:1],8,8/6,8,
8/1>4[8:1],8,8/1,8,8/5-2[8:1],8,8/5,8,
1/7,2/6,7/1-6[8:1],2/6,{4}1/7h[8:3],{8}5,5,
2/8,3/7,2/8-3[8:1],7/3,{4}8/2h[4:1],{16}4,5,6,7,
{8}1b/8-4[8:1],1,8/1,1,1/3-7[8:1],1,1/3,1,
1/8<5[8:1],1,1/8,1,1/4-7[8:1],1,1/4,1,
8/2,7/3,2/8-3[8:1],7/3,{4}8/2h[8:3],{8}4,4,
3/5,3/5,4/6,4/6,5/7,5/7,8h[16:1],8h[16:1],
{4}B1/E2fh[1:3]/8bv3[8:1],8,4<7[8:1],4,
{8}8-4[8:1],B2,{4}8,5-7[8:1],5,
B1/8<5[8:1],8,4-7[8:1],4,
B2/B3/E4/E8/B7/B6/E6,{8},,,,1h[16:1],1h[16:1],
{4}B8/E8fh[1:3]/1bv6[8:1],1,5>2[8:1],5,
{8}1-5[8:1],B7,{4}1,4-2[8:1],4,
B8/1>4[8:1],1,5-2[8:1],5,
B7/B6/E6/E2/B2/B3/E4,{16},,,,,,,,8,7,6,5,
{8}3/4b-8[8:1],3,3/4,3,3/7<4[8:1],3,3/7,3,
3/5-1[8:1],3,3/5,3,3/8-4[8:1],3,3/8,3,
1/2,3/8,1-5[8:1]/2-5[8:1],3/8,{4}2/1,{8}6,6,
8/7,6/1,8-4[8:1]/7-4[8:1],6/1,{4}7/8,{16}1,2,3,4,
{8}6/5b-1[8:1],6,6/5,6,6/2>5[8:1],6,6/2,6,
6/4-8[8:1],6,6/4,6,6/1-5[8:1],6,6/1,6,
8/7,6/1,8-4[8:1]/7-4[8:1],6/1,{4}7/8,{8}3,3,
4/3,2/1,8/7,6/5,4/3,2/1,{16}8,7,6,5,
{4}B2/E3fh[1:3]/4b-8[8:1],4,1-5[8:1],1,
{8}4-7[8:1],B3,{4}4,8<5[8:1],8,
B2/4-1[8:1],4,8-5[8:1],8,
E1/B8/B7/E7/B3/B4/E5,{16},,,,,,,,1,2,3,4,
{4}B7/E7fh[1:3]/5b-1[8:1],5,8-4[8:1],8,
{8}5-2[8:1],B6,{4}5,1>4[8:1],1,
B7/5-8[8:1],5,1-4[8:1],1,
E1/B1/B2/E3/B6/B5/E5,{16},,,,,,,,1,1,1,1,
{8}1b,2x-5-2[4:1]/8x-5-8[4:1],,2/8,,,1b,2x-5-2[4:1]/8x-5-8[4:1],
,2/8,,,5/1b-5[8:1],3x/7x,{4}1/5,
{8}8b,7x-4-7[4:1]/1x-4-1[4:1],,7/1,,,8b,7x-4-7[4:1]/1x-4-1[4:1],
,7/1,,,{2}2b/6b,
{8}1b,2x-5-2[4:1]/6x-1-6[4:1],,6/2,,,1b,2x-5-2[4:1]/6x-1-6[4:1],
,6/2,,,1b-5[8:1],3x/7x,{4}1/5,
{8}8b,7x-4-7[4:1]/3x-8-3[4:1],,3/7,,,8b,7x-4-7[4:1]/3x-8-3[4:1],
,3/7,{24},,,,,,{12}1,3,2,7,5,6,
{8}3b,4-8[8:1],,4>2[8:1],,,6b,5-1[8:1],
,5<7[8:1],,,1b-6[8:1],6-1[8:1],{4}1,
{8}5b,5-1[8:1],,5<7[8:1],,,3b,4-8[8:1],
,4>2[8:1],,,{2}8b,
{8}6b,5>3[8:1]*-1[8:1],,5<7[8:1],,,3b,4<6[8:1]*-8[8:1],
,4>2[8:1],,,7b-4[8:1],4-8[8:1],{4}7,
{8}2b,1-4[8:1]*v6[8:1],,1b,,,7b,8-5[8:1]*v3[8:1],
,8b,{24},,,,,,{12}2,3,4,8,7,6,
{8}1b/5h[8:5],2,3,4-8[8:1],,4,A7/A8,A6,
A5,1h[4:1]/A4fh[4:1],,,2/6h[8:5],3,4,5-1[8:1],
,5,A8/A1,A7,A6,2h[4:1]/A5fh[4:1],,,3/4h[8:5],
2,1,8-4[8:1],,8,A5/A4,A6,
A7,4h[4:1]/A8fh[4:1],,,2/1h[8:5],3,4,5-1[8:1],
,5,{4}8bh[2:1],{32},,,,A1,A2,{16}A3,,,,,{8}6/5h[4:1],
7,8,4h[4:1]/1-5[8:1],,1,3h[4:1]/A5,A6,
A7,2h[4:1]/A8fh[4:1],,,2/1h[4:1],3,4,8h[4:1]/5-1[8:1],
,5,7h[4:1]/A1,A2,A3,6h[4:1]/A4fh[4:1],,,3/4h[4:1],
2,1,5h[4:1]/8-4[8:1],,8,6h[4:1]/A4,A3,
A2,7h[4:1]/A1fh[4:1],,,7/8h[4:1],6,5,1h[4:1]/4-8[8:1],
,4,2b,2bh[4:1],,Cfh[8:3],,,1b>4[8:1],
,,5b<8[8:1],,,{4}4b>1[8:1],
{8},8b<5[8:1],,,1b,1-5[8:1],1,7b,
7-4[8:1],7,3b,3-8[8:1],3,6b,6,6,
{16}7b-3[8:1],8,,8b,{8}7,1,2,3,{16}6b-1[8:1],5,,5b,
{8}6,4,3,2,{24}1b,2,3,5,6,7,1b,2,3,5,6,7,
1b,2,3,5,6,7,{32}1b,2,3,4,5,6,7,8,1,2,3,4,5,6,7,8,1,2,3,4,5,6,7,8,
{8}1b<8-6[8:1],6,5/1-4[8:1],4,5/1-6[8:1],7,5/1>2-4[8:1],4,
5/1<6[8:1],7,5/1-5[8:1],4,1/7,6,8/2,3,
1/7,2/6,1-4[8:1]/7-4[8:1],3/5,{4}7/1,{8}5,5,
8/2,7/3,8-5[8:1]/2-5[8:1],6/4,{4}2/8,{16}8,1,8,1,
{8}8b-2>3[8:1],3,4/8-5[8:1],5,4/8-3[8:1],2,4/8-6>5[8:1],5,
4/8>3[8:1],2,4/8-4[8:1],5,8/2,3,1/7,6,
8/2,7/3,8-5[8:1]/2-5[8:1],6/4,{4}2/8,{8}4,4,
5/6,7/8,1/2,3/4,5/6,7/8,{16}1,2,3,4,
{4}5b-2[8:1],{8}5,6b-1[8:1],,6,{4}4h[1:1],
{8}1,1,7,7,3,3,{16}8,7,6,5,
{4}4b-7[8:1],{8}4,3b-8[8:1],,3,{4}5h[1:1],
{8}6,7,8,1,2,3,{4}4,
2b-5[8:1],{8}2,1b-6[8:1],,1,{4}4h[1:1],
{8}7,6,1,2,6,5,{16}3,2,1,8,
{4}7b-4[8:1],{8}7,8b-3[8:1],,8,{4}5h[4:1],
6b-1[8:1],4b-7[8:1],2b-5[8:1],8b,
{8}6/4>1[8:1],5,6/4b,5,6/8-3[8:1],5,6/8b,5,
{4}7b-4[8:1]/4b-8[8:1],4b/7b,{8},2h,,2h,
3/5<8[8:1],4,3/5b,4,3/1-6[8:1],4,3/1b,4,
{4}2b-5[8:1]/5b-1[8:1],5b/2b,{8},8h,8h,8h,
7/1-5[8:1],6,7/1,6,7/4-8[8:1],6,7/4,6,
7/1>4[8:1],6,7/1,6,7/5-2[8:1],6,7/5,6,
8/1,8/2,8/3,8/4,8/1,8/2,8/3,8/4,
5/1,2/6,3/7,4/8,5/1,2/6,3/7,4/8,
{64}E2/E8f,B2/B7,B6/B3,E6/E4,
E
