&title=ラストリゾート
&artist=Ayase
&first=0.355
&des=布衣
&lv_5=13
&des_5=布衣
&inote_5=
(124){8}2/7,{24}6/3,,4,{8}5-1[8:1],6,{4}7-3[8:1],2b,
{8}2/4,3,5/7,6,{16}5/3h[16:3],,,2h[16:3],,,{8}1h[4:1],
,7,6-1[8:1],6,2>5[8:1],2,7,6,
7/5,6,4/2,3,{16}4/6h[16:3],,,7h[16:3],,,{8}8h[4:1],
,2,3-8[8:1],3,7<4[8:1],7,2,3,
2/4,3,5/7,6,{16}7/1h[16:3],,,2h[16:3],,,{8}3h[4:1],
,8,7<4[8:1],7,2-6[8:1],2,7,8,
7/5,6,4/2,3,{16}2/8h[16:3],,,7h[16:3],,,{8}6h[4:1],
,1,2>5[8:1],2,7-3[8:1],7,2,1,
2,4-1[8:1],6,4,{16}7h[16:3],,,6h[16:3],,,{8}5p3[4:1],
,5x/1x-7-2-6-3-5[2:1],{16},,,,,,,,,,,6x,
,,{8}5-8[8:1],3,5,{16}2h[16:3],,,3h[16:3],,,{8}4q6[4:1],
,4x/8x-2-7-3-6-4[2:1],,,,,,,,4-1[8:1],
6,4,{16}7h[16:3],,,6h[16:3],,,{8}5-3[8:1],
,7/5,{4}8h[2:1],{8}A2,A6,{16}A4,,,3,
,,{8}2,1-7[8:1],1,6-4[8:1],6,2-5[8:1],2,
{4}7-4[8:1],7/1-5[8:1],8<5[8:1]/1>4[8:1],1/8,
{12}2/5,{24}3,4,,,{12}4/7,{24}6,5,{48},,,,{16}5/3h[16:3],,,2h[16:3],,,{8}1h[4:1],
,7,6-1[8:1],6,2>5[8:1],2,8,7,
{12}7/4,{24}6,5,,,{12}5/2,{24}3,4,{48},,,,{16}4/6h[16:3],,,7h[16:3],,,{8}8h[4:1],
,2,3-8[8:1],3,7<4[8:1],7,1,2,
3/5,2/4,{16}3,5,4,6,{8}5,{16}8z4[4:1],1,,,{8}8,
,3,,5h[4:1],4,3,{16}2,8,1-5[8:1],7,
,,{8}1/5,,4h[4:1],{16}5,5,6,6,{8}7,{16}8-4[8:1],2,
,,{8}8/4,,5/3q5[4:1],{2}6h[8:3],
{8}6/4,7/5,{16}6,4,5,3,4h[16:3],,,6h[16:3],,,{8}8-5[8:1],
,8/2,,4h[4:1],5,6,{16}7,1,8-4[8:1],2,
,,{8}8/4,,5h[4:1],3,4h[4:1],6,5,
7/2,{24}3/6,,5,{8}4-8[8:1],3,{4}2-6[8:1],{8}6,8bx,
7/5-2[8:1],7,6/5,6,{16}1-6[16:1]/8-6[16:1],,,1x/8x,,,,,{8}2/4-7[8:1],
2,3/4,3,{16}8-3[16:1]/1-3[16:1],,,8x/1x,,,,,{8}6h[4:1]/5-2[8:1],
4,{4}5,{8}3h[4:1]/4-7[8:1],5,{4}4qq2[8:1],
{8}4/5pp7[8:1],6,5/4w8[8:1],3,{4}4b,{8}5,6,
{16}7/8-4[16:1],,,1bx/8bx,,,{8}3,{16}2/1-5[16:1],,,1bx/8bx,,,{8}6,
7<4[8:1],7,2-6[8:1],2,5-1[8:1],5,2,3pp1[4:1],
,8,7-5[8:1],8,2-4[8:1],1,6,{16}5,5,
,,{8}5h[8:1],3h[8:1],7h[8:1],{16}1h[8:3],,,4,,,{8}6<2[4:3],
,4h[16:3],,,4h[16:3],,,3>7[4:3],
,5h[16:3],,,5h[16:3],,,6V82[4:3],
,4h[16:3],,,4h[16:3],,,3V17[4:3],
,5h[16:3],,,5h[16:3],,,4,
6/3h[4:1],7,8h[4:1],2,1h[4:1],4,5,4/7,
3/6h[4:1],2,1h[4:1],7,8h[4:1],5,4,5/2,
6/3,7,8/1,2,3/6,7/4,2/5,1/8,
2/7,{24}6/3,,4,{8}5-1[8:1],6,{4}7-3[8:1],1-4b[8:1],
{32}1b/8b,E8,B7,B6,{8}E6,{12}2/5x,{24}3,4,,,{12}4/7,{24}6,5,,,{12}2/4,{24}3,4,,4,
{12}5,{24}5,6,,6,,,4,5,,6,{12}5,{24}3,4,,5,{12}4x,{24}4x,5x,,5x,
{12}6,{24}6,8x,,,{12}7/4,{24}6,5,,,{12}5/2,{24}3,4,,,{12}7/5,{24}6,5,,5,
{12}4,{24}4,3,,3,,,5,4,,3,{12}4,{24}6,5,,4,{12}5x,{24}5x,4x,,4x,
{12}3,{24}3,1x,,,{12}2/5,{24}3,4,,,{12}4/7,{24}6,5,,,{12}2/4,{24}2,4,,4,
{12}5,{24}5,7,,7,,,5,4,,5,{12}6,{24}4,3,,4,{12}5x,{24}4x,5x,,5x,
{12}6,{24}6,8x,,,{12}7/4,{24}6,5,,,{12}5/2,{24}3,4,,,{12}7/5,{24}7,5,,5,
{12}4,{24}4,2,,2,{8}8-5[8:1],1-4[8:1],8-6[8:1],1-5[8:1],8-4[8:1],1-3[8:1],
8,1b,{4}6h[2:1],B2,5h[2:1],
B1,4h[2:1],B8,3h[2:1],
B7,4h[2:1],B8,5h[2:1],
B1,6h[2:1],B2,C,
B1,4/3h[4:1],B2,5/6h[4:1],
B7,3/4h[4:1],B1,6/5h[4:1],
B8,4h[2:3],{2}8<8V64V28[1:1],
{4},,,{32}E8,E7,E6,E5,E4,E3,E2,E1,
{4}8bx,{16}5-2[8:1],6,4,7,{8}5,8,{16}1-6[16:1]/8-6[16:1],,,1x/8x,
,,{8}5x,2/4-7[8:1],3,2/4,3,7/1-5[8:1],7/1,
1/7-4[8:1],8,7/3-6[8:1],2,3/7-3[8:1],8,7/1,2,
8<5[8:1]/1>4[8:1],7,{4}8/1,{8}5/4w8[8:1],3,{4}4b,
{16}4,4,3,3,2/1-5[16:1]*-4[16:1],,,1bx,,,{8}6x,{16}7/8-4[16:1]*-5[16:1],,,8bx,
,,{8}3,2>5[8:1],1,7-3[8:1],8,4-8[8:1],5,
7,6qq8[4:1],,1,2-4[8:1],1,2b/7-5[8:1],8,
2/7b,{16}3,3,{48},,,,{24}4,5,,5,{12}4,{24}4,6,,6,{12}3,{24}3,4,,4,
{12}5,{24}5,6,,6,,,4,5,,5,{8}3-6[8:1],4,3/7-2[8:1],8,
7,{16}4-8[8:1],4,,,{8}4b/2b,{24},,3,7,,7,{12}4,{24}4,5,,5,
{12}2,{24}2,6,,6,,,5,4,,4,{8}5<8b[8:1],3,{4}5>2b[8:1],
{16}5/8h[8:3],,,1-4[16:1],,,{8}1bx,
E
