&title=Dominant
&artist=MIDInco
&first=0.085
&des=欢韵奇旅
&lv_5=13+
&des_5=欢韵奇旅
&inote_5=
(160){4},{8},,,,,,,,,,,,,,8,
,,2,,6,,4,
,,,,,6pp5[8:7],,,1,
2,3,4h[4:3],,,,,,E6,
B5,B4,{2}E4,
{8}1,,,7,,3,,4/5h[2:1],
,,,3h[4:1],,8,7,6,
{1}5<4[4:3],
{8}C,,,7/2,,8/1,{4}8/1,
2/7V51[8:3],{8}3,3,,4,,1/5qq1[8:5],
,8x,{4}8x,{8}7,7h[8:3],,,8x,
1,2,3,7,8,1,2,
6,7,8x,1,{16}7/2,8,1,2,3,4,5,6,
{4}2/7V51[4:1],{8}3,3,,8/2-4[8:1],,2/6-8[8:1],
,,,7qq4[8:3]/2<8[8:1],{16},,,,,,,,8,
1,2,3,{4}4-8[4:5],{8},,,,,,,,,,,,3,
4,5,6h[8:3],,,3,4,
5,6h[8:3],,,{4}8,2,
{8}3,4,5,6pp5[8:3],{32},,,,,,,,4x,3,{16}2,,,,,{8}1,
2,3,{2}4/8<7v6[4:1],
{4}3h[4:1],5,7,1/2,
{8},5h[8:1],{12}3,2,1,4,3,2,5,4,3,
{8}6,5,4,3qq4[8:3],,,{4}5<7[8:1],
{12},,,3,4,5,{2}6,
7/2pp8[8:5],6h[8:5],
{8},7,{4}7-3[8:1],{2}7/8,
4/7<4-8[8:3],{8}2h[8:3],,,1v6[8:1],
,,{4}2-5[8:1],{2}2/5,
{4}5/3,1/3,1/7-2[8:1],7/6,
{12},,,8,1,2,7,8,1,6,7,8,
{8}6,5,4,6/3pp2[2:1],,,{4}7-1[8:1],
7,{12}3x,4,5,{2}6/3,
{8}7/1>6[8:3],,,6<1[4:1],,1>4[4:1],,4<7[4:1],
,,,,8,1/7,,,8x,
7,6,5h[8:5],,,,,4,
3,2,1,{4}5/8V24[4:1],{16}4,5,6,7,
{8}8<3[8:3],,,3>8[4:1],,8<5[4:1],,5>2[4:1],
,,,1V35[8:3],,5,6,7,
{1}8-2>6[2:1],
{12}3/7,4,5,2/6,3,4,{2}1-5[8:1]/5-7[8:1],
{4}6/8-5[8:1],{8}8/4,2>5-1[8:3],,5/2,,6pp4[8:5],
,,,,2,2h[8:3],,,1,
8,7,6,2,1,8,7,
3,2,1,8,{16}2/7,1,8,7,6,5,4,3,
{8}7/2-4[8:1],7,6,6,{16}5,5,3,4,{8}2,7-3[8:1]/1-5[8:1],
,,,2/6w2[8:1],{24},,,,,,,,,,,,{12}4x,
4,4,8x,8,8,3x/7x,3/7,3/7,6x-3[8:1]/2x-7[8:1],2/6,2/6,
{2}6bx/2bx/Cf,Ch[16:1],
{48}1b/8b,2/7,3/6,4/5,,,,,,,,,{16}3/6-1[8:1],3/6,,,2/6x,,,3/4,,,{8}7/5,
{16}1b,7,8,6,3,5,2,4,1x,7,8,6,3,5,2,4,
{32}1b,8/2,7/3,6/4,{8}5,6h[16:1]/4h[16:1],6h[16:1]/4h[16:1],6x-8[8:1]/4x-2[8:1],5,{4}6/4,
{24}1b/7,2,3,4,5,6,2/7,3,4,5,6,7,{4}8b-5b[8:1]/4b-8[8:1],8b/4b/Cf,
{32}2b/7b,3/6,{16}5/4,,,3,3,7,5,8x,2,4,3,6,4,7,5,
8b,1,2,3,7/4,8,1,2,3/6x,7,8,1,{4}2-6[8:1]/5-2[8:1],
{8}5b/2b/Cf,,,1b-5[8:1]/5-1[8:1],,5/1b<6[8:1]*>4[8:1],,1bz5[4:1]*s5[4:1],
,,,,{4}4x/B6f/B5,{16}3,3,5,5,
{4}4b>2[12:1],{32}4/6,5,,,,,,,{16}1xh,6,4,5,1h,5,3,4,
8h,5,4,6,8h,6,5,7,1xh,6,3,5,1h,5,2,4,
8h,5,2,6,8h,5,3,7,1xh,4,2,6,{8}5x/8h,{32}A1,B1,C,B5,
{16}A5,7x,{8}7xh[8:1],{48}1x,2x,3x,4x,,,1x,8x,7x,6x,,,{8}1x-6[8:1]*-4[8:1],8/2,{64}1,Cf,,,,,,,,,,,,,,,{4}3x/7bxV53[4:1],
{24}3<8b[4:1],2x,1x,8x,,,{8}B7/B8,B2/E2,{4}A3/E4,
{16}8/3,7,6,5,4/2,5,6,7,8/3x,1,2,3,4/7-4b[8:1],8,1,2,
{8}3/7b/B6f,,,4-8[8:1]/2b-5[8:1],,4/2b<4[8:3],,2b/3h[8:3],
{16},,,,,,1x,1,{2}B4/B3f/E4,
{8}8/3qq4[1:1],,,7,,6,,5h[8:5],
,,,,{4}B3/E3,E6/B5,
5x/1V75qq2[2:3],,,7x,
{2}7xh[4:1],B6/E7,
{12}E2,E3,E4,E6,E7,E8,D2,D3,D4,D6,D7,D8,
{16}E2/E1,E3,E4,E5,E6,E7,E8,E1,D2,D3,D4,D5,D6,D7,D8,D1,
{2}1xpp5[4:3],B7/E7/B6,
8V26[4:1],4-2[8:1],
{32}1b/6h[4:1],2,3,4,,,,,,,,,{8}4b-1[8:1]/7b-3[8:1],,7b/4pp7b[8:3],,4b/2h[8:5],
,,,,8,4/7h[8:3],,,1,
2,3,4,{16}7,6,5,4,6,5,4,3,
8,1,2,3,4v1[8:1],5,6,7,{4}4/8-5[8:1],8,
{8}6/4,6/4,5/3,5/3,{16}2,2,8,1,{8}7,4-8[8:1]/6-2[8:1],
,,,3/7w3b[8:1],{24},,,,,,,,,,,,{12}5,
5,5,1,1,1,2/6,2/6,2/6,7-2b[8:1]/3-6b[8:1],3/7,3/7,
{2}7bx/3bx/Cf,Ch[16:1],
{32}7bz3-5v7-1<5[8:11]/2bs6-4v2-8>4[8:11],6/3,{16}5/4,{1},{4},,{8},{4}E5f/A5/A4/D5,
{32}8b/2b,7/3,{16}6/4,,,{8}1/5,7/3>8[8:1],6x,3/5,,2/6,
{32}7b,6h,5,4h,8,1h,2,3h,7,6h,5,4h,8,1h,2,3h,{4}7b-4[8:1]*-3[8:1],7b/Cf,
5/2b-4[8:1],{48}2/6,5,,,,,,,,,,,{16}6x,6,4,4,8,8,2,2,
6b,4,5,3,7,5,6,4,8x/3,1,2,3,4/1b-6b[8:1],2,3,4,
{8}1b/5/B7f,,,1b-5b[8:1]/5-1b[8:1],,5/1b>4b[8:1]*<6b[8:1],,1bs5b[4:1]*z5b[4:1],
,,,,{4}B5/A6/B6/E6/D6/E7f,{12}4/8,8/4,8/4,
{4}8b/4b>2[12:1],{32}4/6,5,{96},,,,,,,,,,,,,,,,,,{12}1x/7x,1,6/2,3h,5/4,5/4,
6h,7,8/2,3h,4/7,7/4,6xh,4,5/3,2h,8/1,7,
7/5,6,6,2/5,3,3,7/4,6,6,2/5,3,4,
8/5,7,6,1/5,2,3,{8}5-1[8:1]/4-8[8:1],2/7,{4}5/4/Cf,
6x/2bxV46[4:1],{24}6>1b[4:1],7x,8x,1x,,,{8}B1/B2,E8/B7,{4}E6/A6,
{16}1/6,2,3,4,5/7,4,3,2,1/6x,8,7,6,5/2-5b[8:1],1,8,7,
{8}6/2b/B3f,,,7b-4[8:1]/5-1[8:1],,5/7b>5b[8:3],,7b/6h[8:3],
{16},,,,,,8x,8,{2}B5/E6/B6f,
{8}1,,,7,,3,,5h[4:3],
,,,,,3qq4[4:3],,,8,
7,6,5h[4:3],,,,,,E4,
B4,B5,{2}E6,
{8}A8/B8,,,A2/B2,,B6/A6,,B4/A4/E5/E4,
{48},,,,,,,,,,,,,,,,,,E6,B5,,,,,,,,,,,{8}E2,B7,E4,
{32},,,,,,,,Ch[4:7],B6,{16}B3,
E
&lv_6=14
&des_6=jumpscare神曲吓4我哩
&inote_6=(160){4},{1},{4},,{16}6,
5,4,
3,2,,,,,,E8,,,,A1,{64},,,,,,,,,,,,3h[8:5]/B5,E5,{4},,{16},{32},{16}6,
,7/5h[8:3],,,,,,6,
,5,,4,,3p1[8:7],,,,,,,,,,,,5h[8:5],
,,,,,,,,,3,4,5,
6,7,,,,,,E2,,,,A8,{64},,,,,,,,,,,,6h[2:1]/B4,E5,{4},{16},,,{32},5x,
4x,{16}3x,,,7,,7,,8,
,1/6,,2,,5,,,,7/4,,3,,8,,,,2b/6bpp5[8:3],
,,,,,,,,,3,,3,4,5,
6,3b/7b-4[8:1],,,,2,,2,,,,1h[4:1],,,,3<8[8:3],
,,,2,,2,,,,3x,,3h[8:3],,,,,,1,
,2,,3,,4,,5x/6x,,7,,4,,3,
,6,,5,,3,,2/4h[4:1],,,,1,2,3,4,5,
6,3b/7b-4[8:1],,,,2,,2,,,,1-6[8:1],,,,5bh[2:1],
{32},,,,,,,,,,,,,,8x,1x,{16}2x,,,7,,7,,4,
,6,,5,,4,,3,,5,,4,,3,,2,
,5x,,1,,5,,2,,6h[2:1],,,,,,,,E4,
,B4,,B6,,E7,,,,,,E4,,B4,
,B6,,E7,,,,,,E4/B3,,,,B7/E8,,,,A2,
,E2,,E1,,A8,{32},,,,,,,,,,A2,E3,{8}B3,
{16},,,E1,,E8,,A7,,E2/A1/D2,{32},,,,,,,,,,,,,,E7/D4h[4:1],
E6h[32:7],,,,,,,,,,,,,,,{16}B1,,,,D8/A1,,,,,,A5,
,E2,{48},E3,,,,E4,,,,{16}E8,{48},E7,,,,E6,,,,{16}A1,{48},A2,,,,A3,
,,,{16}A7,,E8,,E1,,A1,,,,,,E7h[4:3],{48},,,,,,,,,,,,,,,,,E6,
,,,{16}E5,{48},E4,,,,E3,,,,{16}E2,,,,,,2,
3,4/5h[2:1],,,,,,,,6x<4[2:1],,,,,,,,,,8,
,8,,,,5x/7x-4[8:1],,,,,,,,1h[2:1],
,,,,,,,2x>8[2:1],,,,,,1,
,,,,,2-5[8:1],,,,2x/1x,,,,,,,,6/5h[2:1],
,,,7,,,,4x,,,,8b/1bh[8:3],,,,,,6,
,2,{48},4,,,,2,,,,{16}5x,{48},3,,,,5,,,,{16}4,{48},6,,,,4,
,,,{16}7h[2:1],,,,,,,,8x>3[4:1],,,,6,,,,5h[4:1],
{48},,,,,4,,,,{16}4>1[4:1],{48},6,,,,5,,,,{16}7xh[2:1],,,,,,,,8b-3[8:1],
,,,6,,6<1[4:1],,,,1>4[4:1],,,,5h[8:5],
,,,,,,,,,4xpp5[4:1],,5,,,,,,3,
,2,,1,,8,,7x/4x>2[8:1],,,,,,,,6,
,7,,8,,1,,2x/5xh[4:1],,,,3,4,5,
6,3b/7b-4[8:1],,,,1,,1<6[4:1],,,,6>3[4:1],,,,8h[2:1],
{32},,,,,,,,,,,,,,3x,4x,{16}5x,,,7,,7,,3,
,2/4<7[4:1],,,,,,,,3xq8[4:1],,,,,,,,2q4[8:3],
,,,,,,,8x,,,,6,5,4,
3,6b/2b-5[8:1],,,,8,,8-4[8:1],,,,1pp8[2:1],,,,5h[8:3],
,,,,,,,,,6x,,7h[8:3],,,,,,8,
,7,,6,,5,,4/3,,2,,5,,6,
,3,,4,,6,,7/5h[4:1],,,,8,7,6,5,4,
3,2b/6b,,6,,7/4,,4,,3,5,3-6[8:1],5,3,,7bh[2:1],
{32},,,,,,,,,,,,,,8x,1x,{16}2x,,,5,,4,,3,
,7,{48},7,,,,7,,,,{16}5,{48},5,,,,5,,,,{16}4,{48},4,,,,4,,,,{16}2,{48},2,,,,2,
,,,{16}1h[4:3],,,,,,,,8h[4:1],{32},,,,,,,,,,,,,,1b/8b,
7/2,6/3,5/4,,,,,{16}7/2,,,,8bx/4bx,,6,{8}5,{16}3,4,
,1x-5-2[4:1],,8/2,,6,,6,,7bx,6,5,4,1,2,3,
4,5x/8xV61[16:3],,,,8/4,,3,,2bx-6[8:1]*-5[8:1],,,,2,,,,7xh[16:3],
{32},,4,3,{8}2,8,{16}3,3b/4b-7[8:1],,,,1b<6[8:1]*>4[8:1],,,,1b,
,,,3h[16:1],,4h[16:1],,5bxh[16:1],,6h[16:1],,5h[16:1],,4h[16:1],
,3x,4,2,4,2,,6x,5,7bx,4,7,,6x,5,4,
3,6b/2b-5[8:1],,,,8,,8b-4[8:1],,7x,,3b>8[8:1]*<6[8:1],,,,3bqq5[16:7],
,,,,,,,,,7xh[4:1],,,,4,4,6,
6,1h[4:1],{64},,,,,,,,,,,,E7,B6,{32}B5,,,,,,,{16}2b,4,3,4,2x,5,4x,
5x,3,6,5x,6,3,4x,2,5,4bx,6,1,4,3x,5,2x,
2,7x,1,8,2,6,1,7x,2,5bx,3,6,4,5x,3,6xh[8:3],
,,8x,8x,{32},,1x,2,{16}3,{32}5x,6,{16}7,4x-2[8:1],,5x,,8b-6[8:1],,7x,
,8b,{48},,,,,2,,3,,4,,5-1[8:1],,6,,7,,8,,,,{16}5bx,{48},,,,,7,,,,,,,,6,,,,6,
,,,{16}4x,{48},5,,,,2,,,,{16}4x-8[8:1],{48},7,,,,5,,,,{16}4bx,{48},,,,,6h[24:5],,,,,,,,,,1,,2,
,3,,{16}4b/7bv6-4b[4:1],,,,1,,1b-5[8:1],,,,1b<6[8:1]*>4[8:1],,,,1b,
,,,,,,,6,5,4/7h[8:3],{48},,,,,,,,,,,,,,,3,,4,
,5,,{16}6p4[2:1],,,,,,,,1x,,,,,,,,2>6[16:7],
,,,,,,,8x,,,,,,,,7p4[2:1],
,,,,,,,1x,,,,,,,,1>7[2:1],
,,,,,,,8x,,,,,,,,8<5[4:1],
,,,5p1[4:1],,,,1xp5[4:1],,,,4,,,,1,
,,,2,{48},3,,,,4,,,,{16}5x/1x,,,,7,,,,5/3p1[16:7],
,,,,,,,8x,,,,,,,,7p5[16:7],
,,,,,,,1x,,,,3,4,5,
6,3b/7b-4[8:1],,,,1,{32},,1b,2,{16}3,{32},,,,5b,6,{16}7,{32},,,,1bqq6[2:1],2,
{16}3,,,,,,,,,3x,,2h[8:3],,,,,,4,
,3,,2,,1,,8/7,,6,,1,,2,
,5,4,3,2,1,8,7,6,5x,,1,2,3,4,5,
6,7b/3b,,3,,5/2,,5/2,,7,8,7-4[8:1],8,7,,3bh[2:1],
{32},,,,,,,,,,,,,,1x,8x,{16}7x,,,4,,5,,6,
,2,{48},2,,,,2,,,,{16}4,{48},4,,,,4,,,,{16}5,{48},5,,,,5,,,,{16}7,{48},7,,,,7,
,,,{16}8xh[4:3],,,,,,,,1bh[4:1],{32},,,,,,,,,,,,,,8b<1>8b[2:3]`1b-7-2-6-3-5>4<5>4<5>4<5>4<5>4<5>4<5>4<5>4<5>4<5>4<5>4<5>4<5>4<5>4-8[2:3],
7/2,6/3,5/4,{1},{4},,,{16},,7b/1b-5[8:1],
,2-4[8:1],,1,,2,,8bx,,1>4[8:1],7,8,,1/6,
,7x,,7,6,5,4,3x,2,1b-4[8:1]/5b-8[8:1],,,,5b/1bw5[8:1],,,,1b,
,,,3/7,,8,,5bx-8[8:1],,6,4,5,,2,
,1x-5[8:1],,6,6,1,,7x-4[8:1],,3bx,3,7,,2x,3,4x,
5,2b/6b-1[8:1],,,,4,,4b-8[8:1],,5x,,7b<4[8:1]*>2[8:1],,,,7bpp4[16:7],
,,,,,,,,,3xh[4:1],,,,5,{48},5,,,,1,
,,,{16}1h[4:1],{64},,,,,,,,,,,,E7,B6,{32}B5,,,,,,,{16}2b,{48},3,,,,4x,,,,{16}1x,{48},5,,,,3,
,,,{16}1x,{48},2,,,,6,,,,{16}7x,{48},5,,,,4,,,,{16}3b,{48},8,,,,2,,,,{16}6x,{48},8,,,,7,
,,,{16}4x,{48},5,,,,6,,,,{16}8x,{48},5,,,,4,,,,{16}7b,{48},1,,,,3,,,,{16}2x,{48},8,,,,7,
,,,{16}1x,{48},4,,,,3,,,,{16}2x,{48},6,,,,1,,,,{16}2b/8b-6[8:1],,7x,,4bx-2[8:1],,5x,
,4b,{48},,,,,6,,7,,8,,1-5[8:1],,2,,3,,4,,,,{16}1bx,{48},,,,,3,,,,,,,,2,,,,2,
,,,{16}8x,3,7,1,8x-4[8:1],3,7,1,8bx,{48},,,,,2h[24:5],,,,,,,,,,5x,,6,
,7,,{16}8b/4bV25b[16:3],,,,7,,7b-3[8:1],,,,7b<4[8:1]*>2[8:1],,,,7bqq4[16:7],
,,,,,,,3,2<6[16:5],1bh[2:1],,,,,,,,,,,,,,E8,
,,,A1,{64},,,,,,,,,,,,3h[8:5]/B5,E5,{4},,{16},{32},{16}6,
,7h[8:3],,,,,,5,
,4,,6,,3p1[8:7],,,,,,,,,,,,5h[8:5],
,,,,,,,,,3,4,5,
6,7,,,,,,E2,,,,A8,{64},,,,,,,,,,,,6h[2:1]/B4,E5,{4},{16},,,{32},5x,
4x,{16}3x,,,7,,7,,8,
{48},,,,,,,,,,,,,,,E6,,E5,,E4,
E
