&title=Memory Forest
&artist=ETIA.
&first=0
&des=albertoBradish
&clock_count=4
&lv_5=13+
&des_5=albertoBradish
&inote_5=(178)
{16},,,,
,,,,
,,,,
,,,,
{16},,,,
,,,,
,,,,
,,,,
{12}3xh[6:1],,4h[6:1],
,5h[6:1],,
6h[6:1],,5h[6:1],
,6h[6:1],,
{12}4xh[6:1],,7h[6:1],
,5h[6:1],,
8xh[6:1],,6h[6:1],
,1,,
{12}4x,,3,
,2,,
8,,7,
,6,,
{12}1h[6:1],,5h[6:1],
,2h[6:1],,
6h[6:1],,4,
,5,,
{12}6xh[6:1],,5h[6:1],
,4h[6:1],,
3h[6:1],,4h[6:1],
,3h[6:1],,
{12}5xh[6:1],,2h[6:1],
,4h[6:1],,
1xh[6:1],,3h[6:1],
,8,,
{12}5x,,6,
,7,,
1,,2,
,3,,
{12}8h[6:1],,4h[6:1],
,7h[6:1],,
3h[6:1],,5h[6:1],
,4,,
{16}4h[8:3]/5xh[8:1],,,,
5,,6,,
5-7[8:1],3h[16:3],5,,
,,,,
{16},,,,
,,5,3h[16:5],
4-7[8:1],,5,,
,,,,
{16}4h[8:3]/5h[8:1],,,,
5,,6,,
5-7[8:1],3h[16:3],5,,
,,,,
{16},,,,
,,5,3h[16:5],
4-7[8:1],,5,,
,,,,
{16}5h[8:3]/4h[8:1],,,,
4,,3,,
4-2[8:1],6h[16:3],5,,
,,,,
{16},,,,
,,4,6h[16:5],
5-2[8:1],,4,,
,,,,
{12}E7,,E6,
,E5,,
E1,,E2,
,E3,,
{12}E4h[2:1],,E6,
,E7,,
{16}E8hf[2:1],,,,
,,,,
{16}5x-7[8:1],,,,
5x/4,,3-5[8:1],,
,,3x/8,,
7-4[4:1],,,,
{16}4V61[2:1],,,,
1,,,,
2,,2,,
,,3,4,
{16}5x>7[16:9]`1xpp6[16:9],,,,
,,,,
,,,,
,,,,
{16}5x/4xh[4:1],,,,
5h[16:3],,,,
3h[8:1],,4,,
,,5,5,
{16}4qq1[8:5],,5h[16:1],,
6,,6,,
7,,7,,
8,,8,,
{16}6-8[8:1],,5,,
2-4[8:1],,3,,
5x,,7,,
5x/1x,,,,
{16}7-1[8:1],,1V74[16:3],,
2,,2,,
3-1[8:1],,2,,
4x-6[8:1],,5,,
{16}8>3[8:1],,1,,
7<4[8:1],,6,,
1,,1,,
7/3,6,5,,
{16}5x/4x-2[8:1],,,,
4/5,,6-4[8:1],,
,,6/1,,
2-5[4:1],,,,
{16}5V38[2:1],,,,
8,,,,
7,,7,,
,,6,5,
{16}4<2[16:9]`8qq3[16:9],,,,
,,,,
,,,,
,,,,
{16}4/5h[4:1],,,,
4h[16:3],,,,
6h[8:1],,5,,
,,4,4,
{16}5pp8[8:5],,4h[16:1],,
3,,3,,
2,,2,,
1,,1,,
{16}3-1[8:1],,4,,
7-5[8:1],,6,,
4,,2,,
4x/8x,,,,
{16}2-8[8:1],,8V25[16:3],,
7,,7,,
6-8[8:1],,7,,
5-3[8:1],,4,,
{16}1<6[8:1],,8,,
2>5[8:1],,3,,
7p3[8:1],,7xh[8:1],,
,,,,
{12}7b/4x,,6,
{24}4,,5,4h,,,
6,,,4,7,,
{12},6,,
{12}5/4h,,6,
4,7,,
{24}6/4h,,,4,5,,
{12},6,,
{12}2x/5xh,,3,
{24}5,,4,5h,,,
3,,,5,2,,
{12},3,,
{12}4/5h,,3,
5,2,,
{24}3/5h,,,5,4,,
{48},,,,3x,,5x,,,4x,,,
{16}2x<6[4:1],,,,
3,,4x,,
5-8[8:1],,5,,
1-4[8:1],,1,,
{16}6<1[8:1],,6,,
2>5[8:1],,2,,
7-4[8:1],,7,,
1,,2,,
{16}3x>8[8:1],,4,,
5,,6x,,
7<4[8:1],,8,,
1x,,2,,
{16}3h[4:1],,4,,
6h[4:1],,5,,
3-6[8:1],,4,,
3/6,,,,
{16}3x/7x,,4,5,
3,,4x/6x,,
4,5,3,,
4,6,3,5,
{16}2,,5,4,
6,,5/3,,
5,4,6,,
5,4,6,3,
{16}7x/2x,,4,5,
3,,4x/6x,,
4,5,3,,
4x,6,3,5,
{16}2,,5,4,
6,,5/3,,
5,4,6,,
5,4,6,3,
{16}7x-4[8:1],,,,
7/1,,2,,
3-1[8:1],,3V57[16:3],,
3x,,3x,,
{16}8x-4[16:3],,1,,
2,,3,,
5x-1[16:3],,4,,
3,,2,,
{16}2x/B7/B8/B6/E8,,,,
2x,,B2/E3/B3/B4/E4,,
,,8x,,
B8/B7/B1/Ch[4:5],,,,
{16},,,,
,,,,
,,,,
,,,,
{16}6h[1:1],,,,
,,,,
,,,,
,,,,
{16}4h[1:1],,,,
,,,,
,,,,
,,,,
{16}1<8<7<6>5>4>3>2<1[4:7],,,,
,,,,
,,,,
,,,,
{16},,,,
,,,,
,,,,
,,,,
{16}3h[1:1],,,,
,,,,
,,,,
,,,,
{16}5h[#1.348312],,,,
,,,,
,,,,
,,,,
(89)
{16}4x-8[12:1],5x/3x,,3,
4x/2x,,2x,2xh[4:1],
,,,1,
{64}2x/1,3x,4x,5x,,,,,,,,,,,,,
{16}5x-1[12:1],4x/6x,,6,
5x/7x,,7x,7xV13[48:11],
,,8x/6x,,
,5x,,,
{16}5x-1[12:1],4x/6x,,6,
5x/7x,,7x,7xh[4:1],
,,,8,
{64}7x/8,6x,5x,4x,,,,,,,,,,,,,
{16}4x-8[12:1],5x/3x,,3,
4x/2x,,2x,2xV46[48:11],
,,1x/3x,,
,8x,,,
{16}7-4[12:1],6/5,,,
7/3,,2,4/1h[4:1],
,,,,
{64}4/1,5x/2x,6x/3x,7x/4x,,,,,,,,,,,,,
{16}2-5[12:1],3/4,,,
2/6,,7,8h[8:1]/5h[8:1],
,,7h[8:1]/4h[8:1],,
,6/2,,,
{16}6-1[12:1],7/8,,,
6/2,,3,1/4h[4:1],
,,,,
{64}1/4,8x/3x,7x/2x,6x/1x,,,,,,,,,,,,,
{16}3-8[12:1],2/1,,,
3/7,,6,5h[8:1]/8h[8:1],
,,6h[8:1]/1h[8:1],,
,7/3,,,
{16}6/5V38[4:1],7/4,,7,
5,,6,6h[16:5],
{64},,,,,,,,E1,B1,,,,,,,
{16},,,,
{16}3/4V61[4:1],2/5,,2,
4,,3,3h[16:3],
,,1h[16:3],,
,2,,,
{16}6/5,7/4,,,
,,B5/B4/E5,E7/B6/A6,
,,,,
,,,,
{16}3/4,2/5,,,
,,B4/B5/E5,E3/B3/A3,
8b,,,,
E3/B2/B3/Chf[4:1],,,,
(178)
{16}7-4[8:1],,,8,
7,,1,,
2-5[8:1],,3,4,
2,,6,,
{16}7V53[4:1],,,,
2,,2V46[4:1],,
,,7,,
8,,1h[16:1],,
{16}2-5[8:1],,,1,
2,,8,,
7-4[8:1],,6,5,
7,,3,,
{16}2V46[4:1],,,,
7,,7V53[4:1],,
,,2,,
1,,8,,
{16}8/4<7[16:3],,,,
4/8,,1>4[16:3],,
,,1/8,,
7-3[8:1],,,,
{16}4V68[4:1],,,,
8V24[4:1],,,,
4,5,6,7,
8-4[8:1],,,,
{16}8/5>2[16:3],,,,
1,,8<5[16:3],,
,,8/1,,
2-6[8:1],,,,
{16}5V31[4:1],,,,
1V75[4:1],,,,
5,4,3,2,
1-5[8:1],,,,
{16}1-3[8:1],,7-4[8:1],,
6/1,,7,,
,,5/3,,
6/2,,7/1,,
{16}8-6[8:1],,,,
8/1,,1-5[8:1],,
,,1/2,,
2-4[8:1],,,,
{16}2-6[8:1],,8>3[8:1],,
2,,8,,
,,5-2[8:1],,
6,,5,,
{16}7-4[8:1],,8,8,
7/1,,,,
2-5[8:1],,1,,
2/8,,7,,
{16}6<1[8:1],,5,,
4,,3-8[8:1],,
,,3/4,,
5,,6,,
{16}7-3[8:1],,8-2[8:1],,
7,,8,,
5-1[8:1],,4-2[8:1],,
5,,4,,
{16}7<4[8:1],,8,8,
7/1,,3>8[8:1],,
,,3/4,,
5V31-7-5[16:13],,1,,
{16}3>2<1<8<7<6>5[16:9],,,,
,,,,
,,,,
,,,,
{16}4h[4:1]/Cf,,,,
,,5h[4:1],,
,,,,
6<4[8:5],,,,
{16},,,,
,,,,
4xp6[4:1],,,,
,,,,
{16}5h[4:1],,,,
,,4h[4:1],,
,,,,
3>5[8:5],,,,
{16},,,,
,,,,
5xq3[4:1],,,,
,,,,
{16}4h[4:1],,,,
,,5h[4:1],,
,,,,
6pp2[1:1],,,,
{16},,,,
,,,,
,,,,
,,,,
{16}5h[4:1],,,,
,,4h[4:1],,
,,,,
3w7[1:1],,,,
{4}
