&title=叫SET!
&artist=欧洲稀有黄鱼
&first=-0.03
&des=你们这里谁最喜欢红信用
&lv_5=13
&inote_5=(220){4},6x/3x,,6x/2x,
,6x/1x,,8x/7x,
{8},,8x/7x,7x,{2}1xh[3:2],
{12},,,8x,8x,8x,,1x,{24},,{8}8,8,
8,1,8,8,8,8,1,8,
1w5[4:1],8,,,,,1,8,
8,1,8,1,8,8,1,8,
{4}1V35[8:1],1x/7x-3[8:1],{8}7x,1x,,8,
,1,8,1,,8,{4}1,
1v4[8:1]*-6[8:1],1,{8}8,8,8,1,
8,8,8,8,1,8,1,8,
1V36[8:3]*-4-7[8:3],8,{4}1bx,,8x/5x,
7x/6x,7x/5x,8x/7x,7x/4x,
8x/7x,7x/3x,8x/7x,7x/2x,
8x/7x,7x/1x,8x/7x,7x/6x,
8x/7x,7x/1x,8x/7x,{8}7x/1x,8x/7x,
7x/1x,8x/7x,7x/2x,8x/7x,7x/2x,7x/8x,7x/3x,8x/7x,
7x/3x,8x/7x,7x/4x,8x/7x,4x/7x,8x/7x,5x/7x,7x/8x,
7x/5x,7x/8x,7x/6x,8x/7x,7x/6x,8x/7x,7x/1x,2x/7x,
7x/3x,4x/7x,{16}5bx,7bx,6bx,7bx,6bx>1b[2:1],7bx,6bx,7bx,{4}6bx,
{8}7x,7x,{4}8x,{8}7x,7x,{4}6x-1[8:1],
4x/6x-2[8:1],6x,4x/3x<8b[2:1],3bx,
{8}2x,2x,1x,1x,2x,2x,{4}3x-8[8:1],
5x/3xV57[4:1],3x/7xV53[4:1],{24},,,,,,1bx,8x,7x,6x,5x,4x,
3x,2x,1x,8x,7x,6x,5x,4x,3x,2x,1x,8x,7x,6x,5x,4x,3x,2x,1x,8x,7x,6x,5x,4x,
3x,2x,1x,8x,,,{8}2x,6x,8x/1x,8x/7x,{24}8bx,1x,2x,3x,4x,5x,
6x,7x,8x,1x,2x,3x,4x,5x,6x,7x,8x,1x,2x,3x,4x,5x,6x,7x,8x,1x,2x,3x,4x,5x,
6x,7x,8x,1x,,,{8}7x/2x,7x/4x,{4}7x/8x,8,
{8}8,1,{4}8,8,{8}1,8,
1,8,{4}1bx/8bx,,1,
{8}8,8,{4}8,1,{8}8,1,
8,1,{4}1bx/8bx,,8,
{8}8,1,{4}8,8,1,
{8}8,1,{4}8,1,1bx/8bx,
1bx/8bx,1bx/8bx,1bx/8bx,2bx/3bx,
4bx/5bx,6bx/7bx,,8x/5x,
7x/6x,7x/5x,8x/7x-3[8:1],7x/1x-5[8:1],
1x/4x-8[8:1],4x-7[8:1]*-1[8:1],{8},,8,8,
8,1,8,8,8,8,1,8,
1,8,1bx/8bx,1bx/8bx,{4}1bx/8bx,{8}1,8,
8,1,8,1,8,8,1,8,
1,8,1bx/8bx,8bx/1bx,{4}8bx/1bx,{8}8,8,
,1,{4}8,{8}8,8,,1,
{4}1,1bx/8bx,{8},,1,1,
,8,{4}8,{8}1,8,,1,
{2}8,{4}1bx/8bx,8,
{8}8,1,8,8,,8,,8,
1,8,1bx/8bx,8bx/1bx,{4}8bx/1bx,1,
{8}8,1,8,1,,8,,8,
1,8,1bx/8bx,1bx/8bx,{2}1bx/8bxV63V15V37V52V84-8b[2:3],
E
