&title=ENHANCED FICTION
&artist=Kobaryo/Srezcat/Matatabi Sound System/Nyankovsky
&first=0
&des=Kobaryoが大好き
&lv_5=14
&des_5=Kobaryoが大好き
&inote_5=
(208){4},,,,,,,,,,,,{1}4h[2:3]/5<3[4:5],
,4h[4:7]/3>7[2:1],
7>3[2:1],
5s1[2:3]*z1[2:3],
,1-6[2:1]*-4[2:1],
{2}4h[8:3]/6h[8:3],5h[8:3]/3h[8:3],
{8}2h[8:3],,,3h[8:3],,,{4}4h[8:3],
{8},5h[8:3],,,{2}6h[2:1],
{8}7h[2:1],,,2,2h[8:3],,,6,
6h[8:3],,,3,{2}3h[2:1],
{1}4<2[1:1],
2>1[1:1],
1>8[4:3],
1bs5[2:1]*V73[2:1],
{4}5/4h[4:1],5h[4:1],3h[4:1],6h[4:1],
{8}2h[8:1],7h[8:1],{16}1h[16:1],8h[16:1],1h[16:1],8h[16:1],{4}1-5[8:1],1/7,
4/6h[4:1],3h[4:1],7h[4:1],2h[4:1],
{16}8h[16:1],1h[16:1],8h[16:1],1h[16:1],7h[16:1],2h[16:1],7h[16:1],2h[16:1],6h[16:1],3h[16:1],6h[16:1],3h[16:1],,,,,{8}5,
5,6,6,7,7,8,8,
1,1,2,2,3,3,4,4,
{16}4,5,6,7,8,1,2,3,5/4,6,7,8,1,2,3,4,
{1}5/1bw5[4:5],
{4},,,,8/1h[4:1],
8h[4:1],2h[4:1],7h[4:1],
{8}2b,8,7/3,4,6/5,7,{4}4/8p4[8:1],
8,{8}3,5,6/3,2,{4}5/1-5[8:1],
8b/1b,{8}8,5,7/4,6,{4}5/2q6[8:1],
{8}2/6,7,8,5,{4}4-8[8:1],4/5,
{8}7b,1,2/6,5,3/4,2,{4}5/1q5[8:1],
1,{8}6,4,3/6,7,{4}4/8V64[4:1],
{8}8b/1b,{16},,,,2,1,{4}8V24[16:3],{8}8,7h[4:1],
,4h[4:1],{4}5h[4:1],{8}3,3,6,6,
{2}4b>7[2:1],{8}7bpp3[8:5],,,5,
,6-1[8:1],,6,{4}4b-8[8:1],4,
{2}5b<2[2:1],{8}2bqq6[8:5],,,4,
,3-8[8:1],,3,{4}5b-1[8:1],5,
8/4h[4:1],8,3/7h[4:1],3,
{8}6,6h[8:1],2,2h[8:1],4,4h[8:1],8,8,
{16}8,4,1,5,2,6,3,7,4,8,5,1,4,8,3,7,
{1}6h[2:1]/2w6[0.5712##0.2885],
{4}3b/7b,{16}7,3,7,3,6,4,6,4,5,5,5,5,
5,4,5,4,5,3,5,3,5,2,5,2,5,1,5,1,
{4}5b,{16}2,6,2,6,3,5,3,5,4,4,4,4,
4,5,4,6,4,7,4,8,{4}4b,7b/5b,
4b/2b,{16}3,3,3,3,3,3,3,3,{4}3,
7b/5b,{16}6,6,6,6,6,6,6,6,{4}6<1[8:1],
6b/5b,2>5[8:1],1b/2b,{8}6h[2:1],5h[4:1],
,,{4}4-8[8:1],{8}4,5,6,7,
{4}8b/1b,{8}1-5[8:1],8,1-3[8:1],7,1-6[8:1],8,
1-4[8:1],7,1-5[8:1],8,1-3[8:1],7,{4}1,
{8}8b-4[8:1],1,8-6[8:1],2,8-3[8:1],1,8-5[8:1],2,
{16}8-4[8:1],2,{8}3,{4}8<2[8:3],{8}8,1,1,1,
{4}1bV75[4:1],5V31[4:1],1<5[4:1],5>1[4:1],
8<1[2:1],8,1<5[4:1],5,
{8}3b,3b-8[8:1],,6b,{4}6b-1[8:1],{8}4b,4b,
,4/8,8/3,8/2,{16}1,8,1,8,{32}1,2,3,4,5,6,7,8,
{1}1w5[2:7],
,,,{8}6,
6,3,3h[8:13],,,,,,,,,,,,,4,
5,6,7h[8:5],,,,,6,
5,4,3h[8:3],,,,,{4}3b/7h[4:1],
6h[4:1],5h[4:1],4h[4:1],
3h[4:1],2h[4:1],1h[4:1],2,
7b/3h[4:1],4h[4:1],5h[4:1],6h[4:1],
7h[4:1],8h[4:1],1h[4:1],8,
{8}1b,1,2,2,3,3,4,4,
5,5,6,6,7,7,8,8,
{16}4,5,6,7,8,1,2,3,4/5,6,7,8,1,2,3,4,
{1}1b/5h[4:3],
{4}1/5,2,3,4,
1/5,8,7,6,
5/1,2,3,4,
5/1,8,7,6,
{8}4,4,5,5,3,3,6,6,
2,2,7,7,1,1,8,8,
{16}1,8,2,7,3,6,4,5,4,5,3,6,2,7,1,8,
{1}1bw5[4:5],
{4},,,,1>4[8:1],
1<6[8:1],1-5[8:1],1b,
{8}4b/7b,{16}6,5,{8}6,{16}3,4,2-5[8:1],,,1,{8}2,8,
7b,{16}3,4,{8}3,{16}6,5,7-4[8:1],,,8,{8}7,1,
2b,{16}3,4,{8}3,{16}7,8,7<4[8:1],,,8,{8}7,1,
2b,{16}6,5,{8}6,{16}2,1,2>5[8:1],,,1,{8}2,8,
8b<4[16:3],{16}2,3,{8}4,{16}1,2,3v8[8:1],,,4,{8}3,6,
1b>5[16:3],{16}7,6,{8}5,{16}8,7,6v1[8:1],,,5,{8}6,3,
3bv8[8:1],{16}4,5,{8}6,{16}5,6,7-4[8:1],,,8,{8}7,1,
6bv1[8:1],{16}5,4,{8}3,{16}4,3,2-5[8:1],,,1,{8}2,8,
8bV64[16:3],{16}4,3,{8}2,{16}1,2,3-8[8:1],,,4,{8}3,5,
1bV35[16:3],{16}5,6,{8}7,{16}8,7,6-1[8:1],,,5,{8}6,4,
4bV28[16:3],{16}8,7,{8}6,{16}5,6,7v4[8:1],,,8,{8}7,1,
5bV71[16:3],{16}1,2,{8}3,{16}4,3,2v5[8:1],,,1,{8}2,8,
6b<1[8:1],{16}7,5,{8}6,{16}2,3,4-6[8:1],,,3,{8}4,2,
3b>8[8:1],{16}2,4,{8}3,{16}7,6,5-1[8:1],,,6,{8}5,7,
{16}8,1,8,1,6,5,6,5,8,1,8,1,4,3,4,3,
5b/2b,,,6b/3b,,,{8}7b/4b,{16},8b/5b,,,{8}6b/1b-5[8:1],7b/2b,
{1}1b/8b<8[4:13],
,,,{8}3/5,
3,3,3,3/6,6,6,6,
2/6,2,2,2,2/8,8,8,8,
{16}1,7,1,7,2,6,2,6,{32}2,1,8,7,6,5,4,3,2,1,8,7,6,5,4,3,
{1}2h[4:3]/6h[4:3],
{4}5b/3b,{16}2,6,3,5,4,4,4,4,{4}4b,
6b/4b,{16}7,3,6,4,5,5,5,5,{4}5b,
4b/2b,{16}3,3,{8}3,{4}7b/5b,{16}6,6,{8}6,
{4}3b/1b,{16}2,2,{8}2,{4}8b/6b,{16}7,7,{8}7,
{4}4h[8:1]/1-3[8:1],4h[8:1]/1<7[8:1],4h[8:1]/1>3[8:1],4h[8:1]/1-7[8:1],
5h[8:1]/1-4[8:1],5h[8:1]/1-6[8:1],5h[8:1]/1>4[8:1],1/5h[8:1],
{8}2/5,1/5,{32}1,2,3,4,{16}5,7,{8}5b,8b/4b,7b/3b,2b/6bpp2[8:3],
,,{4}4,{8}4,3,1-6[8:1]*-4[8:1],2/8,
{4}1b,{8}8/3,2,6/1,7,{4}3/8-4[8:1],
8b/1b,{16}3,4,{8}3,5/2,6,4/7,3,
{4}5/2v5[8:1],2b,{8}8-5[8:1]*-3[8:1],1/7,{4}8,
{8}4/6,6/4h[8:1],{16},,6,5,{8}8b,1h[8:1],7h[8:1],2h[8:1],
{4}8bV24[4:1],4V68[4:1],8>4[4:1],4<8[4:1],
1>8[2:1],1,8>4[4:1],4,
{8}6b,6b-1[8:1],,3b/6b,{4}3b>8[8:1],{8}5b/3b,5b,
,6/2,3/7,8/4,{16}1,5,1,5,{32}1,8,7,6,1,2,3,4,
{1}5b/1b-5[4:31],
{8}1,,,8,,,{4}7,
6h[2:1],,,5,
,,{2}6,
{1}7s3[4:15],
E
