&title=Infinite Strife
&artist=BlackYooh vs. siromaru
&first=1.91
&des=Aza
&lv_5=14+
&lv_6=15
&lv_7=15
&inote_5=(198)
{2}1b>5>1[2:3]/8b,E5`B4,E7,C,8<4<8[2:3],B5`E5,E3,C,2>6>2[2:3],E7`B6,E1,C,7<3[4:3],E3`B3,E1,Ch[2:1],
{8}1x,1,{16}2,4,3-5[8:1],,3,,7,8,6-2[8:1],,6,,1-5[8:1],,1,,7,8,7,,2-5b[8:1],1,3,1,2,,,,8,,8,,7,5,6-4[8:1],,6,,2,1,3-7[8:1],,3,,8-4[8:1],,8,,2,1,2,,7-4b[8:1],8,6,8,{4}7,{8}2x/5hx[8:1],3,4h[8:1]/8,7,6h[8:1]/1,2,3h[8:1]/4,5,7hx[8:1]/1,8,2h[8:1]/5,4,8h[8:1]/3,4,1h[8:1]/7,6,2/5,2/5,3/6,3/6,4/7,4/7,{16}8,4,7,3,6,2,5,1,6,8,7,1,6,2,5,3,{4}4-8b[8:1],
{2}2hbx[1:1]/4,,4h[2:1],5h[2:1],{1}6xqq4[1:1],3xp5[1:1],7x>4[1:1],{8}5,,,6,,,7,,2h[8:5]/8h[4:3],,,,,,1,8,{4}1h[4:3]/7h[8:3],,E8/B7,E7/B6,
2bq4[2:1]/5,5,{16}6,6,,,{8}7,,8bp5[2:1]/4,,4,,{16}3,3,,,{8}2,,1bq4[2:1]/5,,5,,{16}6,6,,,7,,,7,8hx[1:1],,,1,,,2,,3,,,4,,,5,,{8}6-2[8:1],6x,7-3[8:1],7x,8-4[8:1],8x,1-5[8:1],1x,2-6[8:1],2x,3-7[8:1],3x,4-8[8:1],4x,5-1[8:1],5x,6,6x,7,7x,{16}8x,7,8,7,1x,6,1,6,{24}1x,2x,3x,4x,5x,6x,7x,8x,1x,2x,3x,4x,5x,6x,7x,8x,1x,2x,3x,4x,5x,6x,7x,8x,
{1}1bxpp5[1:3]/5bxpp1[1:3],,,,4bpp3[1:2]/8bpp7[1:2],,,Chf[1:1],{4}8bV62[2:1],{8}1,1,,2,,3,3bV15[2:1],,4,4,,5,,6,6bV42[2:1],,7,7,,8,,1,{1}1-6V85[2:1]*-4V25[2:1],{4}7h[8:1]/8h[8:1],7h[8:1]/6h[8:1],6h[8:1]/5h[8:1],5h[8:1]/4h[8:1],{8}3/4,2/3,1/2,1/8,{16}1,2,3,4,5,6,7,8,{1}1w5[33#48:1],{2},1b,
{8}3b-7[8:1]/7b,,3/6,5-1[8:1],,4-2[8:1]/5-7[8:1],,4/5,,1h[4:1]/8,,5x,5/1,2/6,3/7,4/8,1/5>2[8:1],,5/8,7-3[8:1],,2-6[8:1]/7-1[8:1],,2/7,,3/8-4[8:1],,2/8,1>4[8:1]*<6[8:1],,1b,,5-8[8:1],,4/5,3-7[8:1],,3<6[8:1]/7>2[8:1],,3/7,,4v1[8:1]/8,,4/7,6,5/2,3/6,4/7,8v3[8:1],,1/8,2v5[8:1],,2v8[8:1]/6v4[8:1],,2/6,,1/5,,3x/7x,2-5[8:1]/6-1[8:1],3/7,2/6,,
8b-4[8:1],,1/8,2-6[8:1],,2/5-2[8:1]*-8[8:1],,5,,3h[8:3]/7,,8-5[8:1],1-4[8:1],{40}8x,E8,B7,B6,E6,1x,E2,B2,B3,E4,{8},6v1[8:1],,1/6,2-6[8:1],,2/5v2[8:1],,5/4,,3/4,,5/6h[2:1],{16}5,4,3,2,1,2,3,4,{8}5/7b-2[8:1],,2/7,3-6[8:1],,3-8[8:1]/7-4[8:1],,3/7,,1/5,,1/5,2/6,3/7,4/8,4/8,3x,3x,2/6,2/6,5x,5x,3/4q5[4:1],3/4,,,4h[2:1],,{16}3x,2x,1x,8x,7x,6x/3,5x/2,4x/1,
{8}8b,5/7,4>1[8:1]/6,5,6,7,8<5[8:1],1,2,3,4h[4:1],5,6h[4:1],5,3h[4:1],4,5<8[8:1],4,3,2,1>4[8:1],8,7,6,5h[4:1],4,3h[4:1],4,6h[4:1],5,4,4,3/5,1/2,3h[8:1]/8,{16},4,{8}3>8[8:1],2,,5,6x-1[8:1],7,,2-5[8:1],3,,8<2[2:1],7,{2}8b,1h[2:1],{16}8,7,6,5,8,7,6,5,1,2,1,2,8,3,8,3,
{8}1b,2/4,3/5<8[8:1],4,3,2,1>4[8:1],8,7,6,5h[4:1],4,3h[4:1],4,6h[4:1],5,4>1[8:1],5,6,7,8<5[8:1],1,2,3,4h[4:1],5,6h[4:1],5,3h[4:1],4,5,5,{4}4hbx[8:1]/6hbx[8:1],3hbx[8:1]/5hbx[8:1],1hbx[8:1]/2hbx[8:1],7hbx[8:1]/8hbx[8:1],{8}6x/7x,6x/7x,4x/5x,4x/5x,3/2,1/2,1/8V62V48[4:3],,{8}1b/8,1,1,1,1,1,2,2,1-7-2-6[2:1]/3b,3,3,3,3,3,4x,4x,
{2}4hx[2:1],{24}8b,3b/7b,2b/6b,1b/5hb[8:7],,,{8},,B7/E7,B1/E1,C/B4,E3/A3,4h[2:1],{16}D6,D7,D8,D1,D2,,{4}Chf[2:1],4x-1[8:1],,{16}7,8,7,8,7b,6,5,4,3,,,,1h[4:1]/2b,3,4,5,{4}6,{4}1/7,{16}8,8,8,,1v4[8:1]/7v4[8:1],2/6,3/5,,{4},E6/E3/B5/A2,{16}E7,E8,E1,,{8}1hx[16:1],1hx[16:1],1hx[16:1],1hx[16:1],{4}2/8,{16}2/8-4[8:1],3/7,4-8[8:1]/6,,,,,,2,1,2,1,2b,3,4,5,6,,,,7b/8h[4:1],6,5,4,{4}3,
1hb[8:1]/E5,2h[8:1]/E6,3h[8:1]/E7,4h[8:1]/E8,5h[8:1]/E1,6<1v4b[8:3]/E2,B2/E3/B3,,8hb[8:1]/E5,7h[8:1]/E4,6h[8:1]/E3,5h[8:1]/E2,4h[8:1]/E1,3h[8:1]/E8,{32}A4,D5,A5,D6,A6,D7,A7,D8,A8,D1,A1,D2,{8}A2f,3x/4x,4x,2/5,5,1/6,6,7/8-4b[8:1],7/8,7-3b[8:1]/8,6,7/8>3b[8:1],1,7<4b[8:1]/8,6,7/8,1,7/8b,1,2,3,4,5,6,7,{24}8b,1,2,3,4,5,6,7,8,1,2,3,{32}4b,5,6,7,8,1,2,3,4,5,6,7,8,1,2,3,{1}4bw8[1:1],{2},{4}Chf[4:1],3>8[8:1],
{8}3/4<7[8:1],5,4,1,{16}2-5[8:1],1,3,8,2,,7-4[8:1],,1-5[8:1]/6,,7,,1,,8,,3-8[8:1],4,2,5,3,,6,,7,1,8>3[8:1],1,7,,8,,6,4,5<8[8:1],4,6,,{8}5,3b-1[8:1],1b-5[8:1],5b,8b,,{8}3x/8x,6<1[8:1],7,5>2[8:1]/6,4,5,8,1-5[8:1],,1/8,{4}7<4[8:1],7b/8b>3[8:1],7b/8b,{16}5/6,,7x,8,6,1,{8}5-1[8:1],2,5,4,3/7,6,4/5,3,{24}2,1,2,1,2,1,{8}2,{16}3/8,4/7,{4}5-1[8:1]/6-2[8:1],5/6,{1}4b/8bz4[2:1],
{16}3hbx[16:3]/Cf,,,4bx,,,2bx/5bx,,6hbx[16:3]/E1f,,,5bx,,,2bx/7bx,,{24}E7/E3,B6/B3,B5/B4,{4}E5f,{16}1,8,2>5[8:1],1,3,8,2-6[8:1],,6,,{16}2,,,5x/7x,,,4x/5x,,1bx/2hbx[4:1],,E1,E8,E7,E6,E5,E4,{8}1>4[8:1],8,1-5[8:1],7,1,,4,{4}3-1[8:1]/5-1[8:1],3b-7[8:1]/5b-7[8:1],3b/5b,{8}1/8,2/7,3/6,4b/5b,{16}3,4,3,,2b/5b,,6,5,6,,4b/7b,,2,1,2,,3b/8b,,7,8,7h[8:1],,5h[16:3],,,4h[16:3],,,2h[8:1],,1bx,8,7,6,4,3,2,1,7bx,8,7,8,6bx,1,6,1,5bx,2,5,2,4bx,3,4,3,{32}5bx,6,7,8,1,2,3,4,5bx,6,7,8,1,2,3,4,
{8}5bx/1bx,,7/8,2-4[8:1]/6-8[8:1],,2-8[8:1]/6-4[8:1],,2-6[8:1]/6-2[8:1],,,,1/2,3/8,4/7,1/8,2/7,3-6[8:1]/6,,3/7-2[8:1],,4/7,4-7[8:1]*-6[8:1],,4-1[8:1]*-2[8:1],,4,,8,1/7,2/6,2/8,3/7,4-8[8:1]/6,,4/5,6-2[8:1],,1-5[8:1]/6,,1/8,7,6,5,6,5,4,3x/8x,3x/8x,1<6[8:1]/2,,1/2>5[8:1],,2/1,8w4[8:1],,8,,2<4[8:3]/6<4[8:3],,{2}2b/6b,{8},1/5,{16}2,6,3,5,4,,4b,,4/7,,6,,1b,,2/5,,6,5,7,4,8,,1,5,3,7,4,,6b,,3b/8b,,7,8,6b,3,4b,2,5,,1b/6b,,5x,,4/5,,3/8,,2,7,1,6,8,,{32}1x,2,3,4,5,6,7,8,1,2,3,4,5,6,7,8,
{8}1b/5b,,7/8,3bx/4bx,,1/2,5bx/6bx,,4/5,1bx/8bx,,7/8,{16}3/4,,,2/5,,,1/6,,{16}7b,8,7,8,7,1,7,1,7,2,7,2,7,3,7,3,8b,4,8,4,8,4,8,4,1b,5,1,5,1,5,1,5,{24}1b,8,7,6,5,4,3,2,1,8,7,6,5,4,3,2,1,8,7,6,5,4,3,2,{32}1/4b,5,6,7,8,1,2,3,4,5,6,7,8,1,2,3,4,5,6,7,8,1,2,3,4,5,6,7,8,1,2,3,
{1}4bv6-8[4:15]`7b-1v2-4b[4:15],
&inote_6=(198)
{24}1b/5b,2b/6b,3b/7b,{8}4b/8hb[4:3],,,{16}1,2,3h[4:3],,,,,,7,6,5h[8:3],,,,,,{2}2v5[2:1],{16}6,7,8h[4:3],,,,,,4,3,2h[4:3],,,,,,7,6,5h[8:3],,,,,,{2}1-5[2:1],{16}8,7,6h[4:3],,,,,,4,3,2h[4:3],,,,,,7,8,1h[8:3],,,,,,{2}3<6[2:1],6-2[2:1],2<7[2:1],7V53[2:1]*p3[2:1],,
{4}1x/2x,{16}3,4,3,5h[8:1],,,5,4,5,3h[8:1],,,2,4,2,5h[8:1],,,6,4,6-1[8:1],3h[16:5],,,{8},,7x/8x,,{16}6,5,6,4h[8:1],,,4,5,4,6h[8:1],,,7,5,7,4h[8:1],,,3,5,3-8[8:1],6h[16:5],,,{8},,5/6,5/6,3/4,3/4,1/2,1/2,7/8,7/8,5/6,5/7,3/4,2/4,5/6,5/8,3/4,1/4,{16}6,5,7,3,4,2,6,5,8,3,4,1,7,6,8,2,3,1,5,2,6,3,7,4,8,3,7,2,6,1,5,8,
{1}4b<5<6<7>8>1>2>3<4[1:7],Ch[2:1],5h[2:1],6h[2:1],7h[2:1],{8}8,,,8,,,8,,{2}1h[2:1],{8},,1,1,{1}2h[2:1],{4}1b/6b-2[4:1],{16}2V84b[8:3],,,3,{4}3x,4,5v6[4:1],{16}6V42b[8:3],,,7,{4}7x,8,1V73[16:7],{16}2,,,3-8b[16:3],{4}3,{16}4,,5x,6x,{8}7h[8:1],3h[8:1],8h[8:1],4,{16}1/5h[8:1],,,2h[8:1]/6,,,3/7,,{8}4/5,4/5,3/6,3/6,2/7,2/7,1/8,1/8,5/6,5/6,4/7,4/7,3/8,3/8,1/2,1/2,{16}3,4,3,4,2,5,2,5,1,6,1,6,8,7,8,7,{32}1,2,3,4,5,6,7,8,1,2,3,4,5,6,7,8,1,2,3,4,5,6,7,8,1,2,3,4,5,6,7,8,
{40}A1f,E1/E3,E8/E2,E4/E7,E5/E6,{8}5bx>7[8:19]*<3[8:19],{1},,{4},,,{8}6,4/5,3,2/5,6,3/7,2,1,{40}A8f,E1/E8,E2/E7,E3/E6,E4/E5,{8}4bx<2[8:19]*>6[8:19],{1},,{4},,,{8}2x/5x,3,4,3,4x/7x,6,5,6,
4b/5b,,1h[8:1]/7,8,7h[8:1]/1,8,1h[8:1]/7,8,5b/6b,,8h[8:1]/2,1,2h[8:1]/8,1,8h[8:1]/2,1,3b/4b,,5h[8:1]/7,6,7h[8:1]/5,6,5h[8:1]/7,6,1b/8b,,2/4h[8:1],3,2h[8:1]/4,3,2/4h[8:1],3,{4}5hbx[8:1]/6hbx[8:1],7hbx[8:1]/8hbx[8:1],1hbx[8:1]/2hbx[8:1],3hbx[8:1]/4hbx[8:1],{8}4x/5x,2x/3x,1x/8x,6x/7x,{16}E6,E5,E4,E3,E2,E1,E8,E7,
{2}Ch[2:3],,,B7/B8/B1/B2/E1f,
{8}2x-5[8:1]/5x,{16}1,6,{8}2,7-3[8:1],3,7/1-5[8:1],2,1/8,7-4[8:1],{16}8v3[8:1],3,{8}7,8,5<8[8:1],{8}1x,{24}1/5,2,3,{8}4,1/2-6[8:1],{16}3,8,{8}2>5[8:1],7,2,6<1[8:1],5x,4/6,,{16}4x-8[8:1],3x,{8}2x-5[8:1],4,2,7h[8:1],1,2,2/8,{16}6-1[8:1],5,{8}7,4>1[8:1]/6,3,4/8<5[8:1],7,1/8,2,3/4,5,2>5[8:1]/6,1<6[8:1],2,1,3x,4/8<5[8:1],{16}7,1,{8}8-4[8:1],4-8[8:1],8,1>4[8:1],,1<6[8:1]/7,8,1/2,2,3/4,4b/5b,5b/6b,4b/5b,3b/4b,
{16}2/5,,3,4,2,,1/8,7,1/6,,1/2,3,1/4,,1/7,6,1/5,,1/3,4,{8}5<8[8:1],1,5/1,2,3,4,4/8,{16}6,5,7,,8/1,2,8/3,,8/7,6,8/5,,8/2,3,8/4,,8/6,5,{8}4,8h[8:1]/4h[8:1],{16},7x,6x,5x,4x,3x,2x,1x,8bx/4bx,,3,5,2,,1/8,7,1/6,,1/2,3,1/4,,1/7,6,1/5,,1/3,4,{8}5,8/4,1/7,2/6,3/5-1[8:1],3/5,4-8[8:1]/5,4,4/6-1[8:1],6,3-8[8:1]/6,3,3/7<4[8:1],7,1x/7x,{16},{32}3x,2,1,8,7,6,5/4b,3,2,1,8,7,6,5,{8}4b/8b,1x/5x,2x/6x,
{8}3/7,{16}6,5,6,5,6h[8:1],,2b,4,3,4,2,4,3h[8:1],,7b,1,8,1,8,1,8,1,8b,1,8,2,8,3,8,4,8b,7,6,5,1,2,3,4,1,8,7,6,1,2,3,4,5/1x,6,7,8,1,2,3,4,5/8x,7,6,5,4,3,2,1,{8}4/8h[4:1],4x,{16}4x,,4x,B1,4x`B2,,4x,,4x,,4x,B5,{8}4x`B6,E7,E8,E1/E5,E2,C,E7/E3,E5,{2}Ch[2:1],{4}1>5[4:1],5<5[2:1],1,C,{16}1,2,3,4,5,6,7,8,
{8}1b/2b,{16}3,4,3,4,3h[8:1],,7b,5,6,5,7,5,6h[8:1],,2b,8,1,8,1,8,1,8,1b,8,1,7,1,6,1,5,{8}1bV37[4:1],8,7V15[4:1],6,{4}5bV31[4:1],7-4[8:1],7b-1[8:1],2-6[8:1]/7,2/8w4[8:1],8,1bx/8,1bx/2,1bx/7,1bx/4,{8}8bx/3hx[8:1],8x,1bx/4hx[8:1],1x,2bx/5hx[8:1],2x,3bx/6hx[8:1],3x,{16}4,5,4,5,3,6,3,6,2,7,2,7,1,8,1,8,{32}1,2,3,4,5,6,7,8,1,2,3,4,5,6,7,8,1,2,3,4,5,6,7,8,1,2,3,4,5,6,7,8,
{2}1bx>4v3b[8:3]*<6v7b[8:3],Cf,{8}2/E1,E8,1/E7,E6,{4}8>3b[8:1]/E5,8/4h[2:1],5<8b[8:1],5,1s5[8:1]*v3[8:1]/2,,{8}7x/8x,{16}7b/8h[4:1],6,5,4,3,,1h[4:1]/2,3,4,5,6,7,8,1,{4}2hbx[8:1]/5hbx[8:1],{16}3,4,3,4,{8}3>6[4:1],4,3/5,,5-1b[8:1],{16}3/7,4/6,{4}5,{16}2,8,2,8,2-6[8:1],8,2,8,{4}2,{16}7,8,1,2,3/7,4,5,6,7,8,1,2,{1}3qq8[2:1]/7qq4[2:1],
{8}1h[8:1],E6,2h[8:1],E7,3h[8:1],E8,4h[8:1],E1,5h[8:1],E2,6V48-2[2:1],E3,{2},{8}3,3h[4:1],4,4h[4:1],5,5h[4:1],6,6,4/5,3,6z2[4:1],4/5,{2}3,
{16}1hx[8:1]/2hx[8:1],,,3/8,,,4/7,,1hx[8:1]/8hx[8:1],,,2/7,,,3/6,,7hx[8:1]/8hx[8:1],,,1/6,,,2/5,,4hx[8:1]/5hx[8:1],,,3/6,,,2/7,,{8}7,7,8,8,1,1
,2,2,{16}8,1,8,1,8,1,8,1,7,1,8,1,8,2,7,1h[16:21],
{2}8h[2:3],,{4},,{16}1,2,3,4,1x/5-1[8:1],8,7,6,
{8}5b/2b-5[8:1],3,{16}8-4[8:1]/2,7,6x,,8b/1,2,3x,5b,6,7,{8}8/3b,4/7-4[8:1],8,{16}7/1-5[8:1],2,3,,1b/6,7,8,4b,3,2,1/6b,,7/8,,,1,2V86b[16:3],3,7,6V42b[16:3],{8}5/2,,1x>4[8:1],8x<5[8:1],1-5[8:1],8-4[8:1],1b,8b,2,{16}3,4,3,5,6,7,{4}8/2,{8}5-1[8:1]/6-1[8:1],4/7,5/6,,2/4,2/4-8[8:1],{16}4,5,{4}6-1[8:1]/4b,{8}3/6b,2x,2x,{16}8,7,6,5,8-4[8:1],1,2,3,{8}8,3,5b/1bs5[8:5],{16}8,7,1,,8x,7x,{4}6x-2[8:1],6b,{4}3x/4x-8b[8:1],4x>5[4:3]*<3[4:3],4b,,,,
{16}2hb[8:1]/Cf,,,7hb[8:1]/Cf,,,3b/Cf,,5hb[8:1]/Cf,,,1b/8b,,,2b/7b,,{32}1b/8b,2b/7b,3b/6b,4b/5b,{8},,{16}3,2,1b,,7<4[8:1],8b,6,1,7b,,2,,3,4,2,5,{8}1>5[16:3],6,{16}1/6,7,8,1,2,3,{8}4-8[8:1],5,4,1,2-6[8:1],6,7/2b,{4}8<5[8:1]*-5[8:1],8b>3[8:1]*-3[8:1],8b,{16}7,8,7,6,5,4,1b,,2,4,3,4,2b,,7,8,7,8,7b,,4,5,4,6,4b,,2,1,2b,,3b/8b,,,1b/6b,,,4b/5b,,
{16}2b/7b,3,4,5,1,2,3,4,8,1,2,3,7,8,1,2,6,7,8,1,5,6,7,8,{32}1h[8:3]/E5,E6,E7,E8,E1,E2,E3,E4,E5,E6,E7,E8,E1,E2,E3,E4,
{4}Cf/E5,{8}7/8,{4}1-4[8:1]/6-1[8:1],1/6,3-8[8:1]/5-8[8:1],3/5,{8}1x<6[8:1],2,3,4h[4:1],5,{4}6-1[8:1],2-5[8:1]/6,{8}2,{4}8-5[8:1],1/8-3[8:1],7/8,{32}1b-5[8:1],8x,7x,6x,2b-6[8:1],3x,4x,5x,{8}1b<6[8:1],2b>5[8:1],1b,
{4}2b,{8}6,{4}3-8[8:1]/8-4[8:1],3/8,1-5[8:1]/7-3[8:1],1/7,{32}8b-4[8:1],1x,2x,3x,7b-3[8:1],6x,5x,4x,{8}8b>3[8:1],7b<4[8:1],8b,{4}7b,3>8[8:1],{8}3,{4}5w1[8:1],5,1bpp3pp5[8:3]*qq7qq5[8:3],{8}1,{2},
{16}2b/8b,,3,7,4,6,2,5,3b,6,5,7,3,4,2,8,1b,7,2,6,3,8,2b,7b,3b,4,1,6b,5,8,2b,,{4}1b/7b<4[8:1],{8}7,3>8[8:1],2,3/5-1[8:1],6,4-8[8:1]/5,3,4/5,6,7,{32}8,7,6,5,4,3,2,1,{4}8b/4b,{16}1b/7b,,6,2,5b,3,7b,4,6,2,1b,3,7b,8,6,4,5b,3,7,1,6,2,8b,1b,7b,2,6,3b,5,4,3b,2,
{8}1b/5b,1x/5x,2/6,2/6,3/7,3/7,4/8,4/8,1b/5b,1x/5x,2/6,2/6,3b/7b,3x/7x,4/8,4/8,
{24}8b/4,7,6,5,4,3,2,1,8,7,6,5,1b,2,3,4,5,6,7,8,1,2,3,4,{32}8b,7,6,5,8,7,6,5,8,7,6,5,8,7,6,5,8hb[64:1],1h[64:1],2h[64:1],3h[64:1],8hb[64:1],1h[64:1],2h[64:1],3h[64:1],8hb[64:1],1h[64:1],2h[64:1],3h[64:1],8hb[64:1],1h[64:1],2h[64:1],3h[64:1],4b>2v1b[4:15]`8b<7-5[4:15],
&inote_7=(198)
{24}1b/5b,2b/6b,3b/7b,{8}4b/8hb[4:3],,,{16}1,2,3h[4:3],,,,,,7,6,5h[8:3],,,,,,{2}2v5[2:1],{16}6,7,8h[4:3],,,,,,4,3,2h[4:3],,,,,,7,6,5h[8:3],,,,,,{2}1-5[2:1],{16}8,7,6h[4:3],,,,,,4,3,2h[4:3],,,,,,7,8,1h[8:3],,,,,,{2}3<6[2:1],6-2[2:1],2<7[2:1],7V53[2:1]*p3[2:1],,
{4}1x/2x,{16}3,4,3,5h[8:1],,,5,4,5,3h[8:1],,,2,4,2,5h[8:1],,,6,4,6-1[8:1],3h[16:5],,,{8},,7x/8x,,{16}6,5,6,4h[8:1],,,4,5,4,6h[8:1],,,7,5,7,4h[8:1],,,3,5,3-8[8:1],6h[16:5],,,{8},,5/6,5/6,3/4,3/4,1/2,1/2,7/8,7/8,5/6,5/7,3/4,2/4,5/6,5/8,3/4,1/4,{16}6,5,7,3,4,2,6,5,8,3,4,1,7,6,8,2,3,1,5,2,6,3,7,4,8,3,7,2,6,1,5,8,
{1}4b<5<6<7>8>1>2>3<4[1:7],Ch[2:1],5h[2:1],6h[2:1],7h[2:1],{8}8,,,8,,,8,,{2}1h[2:1],{8},,1,1,{1}2h[2:1],{4}1b/6b-2[4:1],{16}2V84b[8:3],,,3,{4}3x,4,5v6[4:1],{16}6V42b[8:3],,,7,{4}7x,8,1V73[16:7],{16}2,,,3-8b[16:3],{4}3,{16}4,,5x,6x,{8}7h[8:1],3h[8:1],8h[8:1],4,{16}1/5h[8:1],,,2h[8:1]/6,,,3/7,,{8}4/5,4/5,3/6,3/6,2/7,2/7,1/8,1/8,5/6,5/6,4/7,4/7,3/8,3/8,1/2,1/2,{16}3,4,3,4,2,5,2,5,1,6,1,6,8,7,8,7,{32}1,2,3,4,5,6,7,8,1,2,3,4,5,6,7,8,1,2,3,4,5,6,7,8,1,2,3,4,5,6,7,8,
{40}A1f,E1/E3,E8/E2,E4/E7,E5/E6,{8}5bx>7[8:19]*<3[8:19],{1},,{4},,,{8}6,4/5,3,2/5,6,3/7,2,1,{40}A8f,E1/E8,E2/E7,E3/E6,E4/E5,{8}4bx<2[8:19]*>6[8:19],{1},,{4},,,{8}2x/5x,3,4,3,4x/7x,6,5,6,
4b/5b,,1h[8:1]/7,8,7h[8:1]/1,8,1h[8:1]/7,8,5b/6b,,8h[8:1]/2,1,2h[8:1]/8,1,8h[8:1]/2,1,3b/4b,,5h[8:1]/7,6,7h[8:1]/5,6,5h[8:1]/7,6,1b/8b,,2/4h[8:1],3,2h[8:1]/4,3,2/4h[8:1],3,{4}5hbx[8:1]/6hbx[8:1],7hbx[8:1]/8hbx[8:1],1hbx[8:1]/2hbx[8:1],3hbx[8:1]/4hbx[8:1],{8}4x/5x,2x/3x,1x/8x,6x/7x,{16}E6,E5,E4,E3,E2,E1,E8,E7,
{2}Ch[2:3]/3m,4m,5m,B7/B8/B1/B2/E1f/6m,
{8}2x-5[8:1]/5x,{16}1,6,{8}2,7-3[8:1],3,7/1-5[8:1],2,1/8,7-4[8:1],{16}8v3[8:1],3,{8}7,8,5<8[8:1],{8}1x,{24}1/5,2,3,{8}4,1/2-6[8:1],{16}3,8,{8}2>5[8:1],7,2,6<1[8:1],5x,4/6,,{16}4x-8[8:1],3x,{8}2x-5[8:1],4,2,7h[8:1],1,2,2/8,{16}6-1[8:1],5,{8}7,4>1[8:1]/6,3,4/8<5[8:1],7,1/8,2,3/4,5,2>5[8:1]/6,1<6[8:1],2,1,3x,4/8<5[8:1],{16}7,1,{8}8-4[8:1],4-8[8:1],8,1>4[8:1],,1<6[8:1]/7,8,1/2,2,3/4,4b/5b,5b/6b,4b/5b,3b/4b,
{16}2/5,,3,4,2,,1/8,7,1/6,,1/2,3,1/4,,1/7,6,1/5,,1/3,4,{8}5<8[8:1],1,5/1,2,3,4,4/8,{16}6,5,7,,8/1,2,8/3,,8/7,6,8/5,,8/2,3,8/4,,8/6,5,{8}4,8h[8:1]/4h[8:1],{16},7x,6x,5x,4x,3x,2x,1x,8bx/4bx,,3,5,2,,1/8,7,1/6,,1/2,3,1/4,,1/7,6,1/5,,1/3,4,{8}5,8/4,1/7,2/6,3/5-1[8:1],3/5,4-8[8:1]/5,4,4/6-1[8:1],6,3-8[8:1]/6,3,3/7<4[8:1],7,1x/7x,{16},{32}3x,2,1,8,7,6,5/4b,3,2,1,8,7,6,5,{8}4b/8b,1x/5x,2x/6x,
{8}3/7,{16}6,5,6,5,6h[8:1],,2b,4,3,4,2,4,3h[8:1],,7b,1,8,1,8,1,8,1,8b,1,8,2,8,3,8,4,8b,7,6,5,1,2,3,4,1,8,7,6,1,2,3,4,5/1x,6,7,8,1,2,3,4,5/8x,7,6,5,4,3,2,1,{8}4/8h[4:1],4x,{16}4x,,4x,B1,4x`B2,,4x,,4x,,4x,B5,{8}4x`B6,E7,E8,E1/E5,E2,C,E7/E3,E5,{2}Ch[2:1],{4}1>5[4:1],5<5[2:1],1,C,{16}1,2,3,4,5,6,7,8,
{8}1b/2b,{16}3,4,3,4,3h[8:1],,7b,5,6,5,7,5,6h[8:1],,2b,8,1,8,1,8,1,8,1b,8,1,7,1,6,1,5,{8}1bV37[4:1],8,7V15[4:1],6,{4}5bV31[4:1],7-4[8:1],7b-1[8:1],2-6[8:1]/7,2/8w4[8:1],8,1bx/8,1bx/2,1bx/7,1bx/4,{8}8bx/3hx[8:1],8x,1bx/4hx[8:1],1x,2bx/5hx[8:1],2x,3bx/6hx[8:1],3x,{16}4,5,4,5,3,6,3,6,2,7,2,7,1,8,1,8,{32}1,2,3,4,5,6,7,8,1,2,3,4,5,6,7,8,1,2,3,4,5,6,7,8,1,2,3,4,5,6,7,8,
{2}1bx>4v3b[8:3]*<6v7b[8:3],Cf,{8}2/E1,E8,1/E7,E6,{4}8>3b[8:1]/E5,8/4h[2:1],5<8b[8:1],5,1s5[8:1]*v3[8:1]/2,,{8}7x/8x,{16}7b/8h[4:1],6,5,4,3,,1h[4:1]/2,3,4,5,6,7,8,1,{4}2hbx[8:1]/5hbx[8:1],{16}3,4,3,4,{8}3>6[4:1],4,3/5,,5-1b[8:1],{16}3/7,4/6,{4}5,{16}2,8,2,8,2-6[8:1],8,2,8,{4}2,{16}7,8,1,2,3/7,4,5,6,7,8,1,2,{1}3qq8[2:1]/7qq4[2:1],
{8}1h[8:1],E6,2h[8:1],E7,3h[8:1],E8,4h[8:1],E1,5h[8:1],E2,6V48-2[2:1],E3,{2},{8}3,3h[4:1],4,4h[4:1],5,5h[4:1],6,6,4/5,3,6z2[4:1],4/5,{2}3,
{16}1hx[8:1]/2hx[8:1],,,3/8,,,4/7,,1hx[8:1]/8hx[8:1],,,2/7,,,3/6,,7hx[8:1]/8hx[8:1],,,1/6,,,2/5,,4hx[8:1]/5hx[8:1],,,3/6,,,2/7,,{8}7,7,8,8,1,1
,2,2,{16}8,1,8,1,8,1,8,1,7,1,8,1,8,2,7,1h[16:21],
{2}8h[2:3]`4m/5m,4m/5m,{4}4m/5m,,{16}1,2,3,4,1x/5-1[8:1],8,7,6,
{8}5b/2b-5[8:1],3,{16}8-4[8:1]/2,7,6x,,8b/1,2,3x,5b,6,7,{8}8/3b,4/7-4[8:1],8,{16}7/1-5[8:1],2,3,,1b/6,7,8,4b,3,2,1/6b,,7/8,,,1,2V86b[16:3],3,7,6V42b[16:3],{8}5/2,,1x>4[8:1],8x<5[8:1],1-5[8:1],8-4[8:1],1b,8b,2,{16}3,4,3,5,6,7,{4}8/2,{8}5-1[8:1]/6-1[8:1],4/7,5/6,,2/4,2/4-8[8:1],{16}4,5,{4}6-1[8:1]/4b,{8}3/6b,2x,2x,{16}8,7,6,5,8-4[8:1],1,2,3,{8}8,3,5b/1bs5[8:5],{16}8,7,1,,8x,7x,{4}6x-2[8:1],6b,{4}3x/4x-8b[8:1],4x>5[4:3]*<3[4:3],4b,,,,
{16}2hb[8:1]/Cf,,,7hb[8:1]/Cf,,,3b/Cf,,5hb[8:1]/Cf,,,1b/8b,,,2b/7b,,{32}1b/8b,2b/7b,3b/6b,4b/5b,{8},,{16}3,2,1b,,7<4[8:1],8b,6,1,7b,,2,,3,4,2,5,{8}1>5[16:3],6,{16}1/6,7,8,1,2,3,{8}4-8[8:1],5,4,1,2-6[8:1],6,7/2b,{4}8<5[8:1]*-5[8:1],8b>3[8:1]*-3[8:1],8b,{16}7,8,7,6,5,4,1b,,2,4,3,4,2b,,7,8,7,8,7b,,4,5,4,6,4b,,2,1,2b,,3b/8b,,,1b/6b,,,4b/5b,,
{16}2b/7b,3,4,5,1,2,3,4,8,1,2,3,7,8,1,2,6,7,8,1,5,6,7,8,{32}1h[8:3]/E5,E6,E7,E8,E1,E2,E3,E4,E5,E6,E7,E8,E1,E2,E3,E4,
{4}Cf/E5,{8}7/8,{4}1-4[8:1]/6-1[8:1],1/6,3-8[8:1]/5-8[8:1],3/5,{8}1x<6[8:1],2,3,4h[4:1],5,{4}6-1[8:1],2-5[8:1]/6,{8}2,{4}8-5[8:1],1/8-3[8:1],7/8,{32}1b-5[8:1],8x,7x,6x,2b-6[8:1],3x,4x,5x,{8}1b<6[8:1],2b>5[8:1],1b,
{4}2b,{8}6,{4}3-8[8:1]/8-4[8:1],3/8,1-5[8:1]/7-3[8:1],1/7,{32}8b-4[8:1],1x,2x,3x,7b-3[8:1],6x,5x,4x,{8}8b>3[8:1],7b<4[8:1],8b,{4}7b,3>8[8:1],{8}3,{4}5w1[8:1],5,1bpp3pp5[8:3]*qq7qq5[8:3],{8}1,{2},
{16}2b/8b`4m,,3,7,4,6,2,5,3b`8m,6,5,7,3,4,2,8,1b`5m,7,2,6,3,8,2b,7b,3b`8m,4,1,6b`7m,5,8,2b`3m,,{4}1b/7b<4[8:1],{8}7,3>8[8:1],2,3/5-1[8:1],6,4-8[8:1]/5,3,4/5,6,7,{32}8,7,6,5,4,3,2,1,{4}8b/4b,{16}1b/7b`4m,,6,2,5b,3,7b`8m,4,6,2,1b,3,7b`5m,8,6,4,5b`2m,3,7,1,6,2,8b,1b,7b`4m,2,6,3b`7m,5,4,3b`7m,2,
{8}1b/5b,1x/5x,2/6,2/6,3/7,3/7,4/8,4/8,1b/5b,1x/5x,2/6,2/6,3b/7b,3x/7x,4/8,4/8,
{24}8b/4,7,6,5,4,3,2,1,8,7,6,5,1b,2,3,4,5,6,7,8,1,2,3,4,{32}8b,7,6,5,8,7,6,5,8,7,6,5,8,7,6,5,8hb[64:1],1h[64:1],2h[64:1],3h[64:1],8hb[64:1],1h[64:1],2h[64:1],3h[64:1],8hb[64:1],1h[64:1],2h[64:1],3h[64:1],8hb[64:1],1h[64:1],2h[64:1],3h[64:1],4b>2v1b[4:15]`8b<7-5[4:15],
