&title=下一站
&artist=HOYO-MiX
&first=-1.85
&des=「開拓」之旅永不結束(EY)
&demo_seek=30.73
&lv_5=14
&des_5=「開拓」之旅永不結束(EY)
&inote_5=
(186){4},{8},,,,,,,,,,,,,,E1/7s3[1:2],
,,E2,,,,,,,,,,,,,B6,
,,B4,,,,,,,,,,,,,E1/2z6[1:2],
,,E8,,,,,,,,,,,{4}B3,
{8},,,E6,,,,,,,{4}7,
{8}2,8,{4}3-7[2:3],
{1}5h[2:3],
{8},,,,,6,8h[8:13],7h[2:3],
,,,,,,,,,,,,,,,,{1}1h[2:3]/7-3[4:5],
{8},,,,,2,4h[2:3],3h[8:11],
,,,,,,,,,,,,5/3,
6/4,{4}5-1b[8:1]/4z8[4:5],
4/5bh,7h,7h,7h,
7h,7h,{8}7/8,6,4/5,3h[8:13],
,,{4}5h,5h,5h,
5h,5h,5h,1-5b[8:1]/8z4[4:5],
8/1bh,3h,3h,3h,
3h,3h,{8}3/4,2,8/1,7,
8b/1b,{16}2,4,{8}3,1b/8b,{16}7,5,{8}6,1b/8b,{16}2/7,3/6,
{4}4/5<7[8:1],5/4>2[8:1],{8}5w1[8:1]/4w8[8:1],6,{4}4/5,
{8}6x-1[8:1],3,6,2,8-5[8:1],3,8,2,
4pp6[8:1],3,4,2,8v5[8:1],3,8,2,
6-1[8:1],3,6,2,7,2q6V42b[8:7]/6q2V86[8:7],,6/2,
{1},{32}8b/1b,
E8/E2,B7/B2,B6/B3,{8}E6h[8:1]/E4h[8:1],,4x-2[8:1]/5x-7[8:1],,4/5,{32},,,,5b/4b,E6/E4,B6/B3,B7/B2,
{2}E2h[4:1]/E8h[4:1],{4}8-5[8:1]/1-4[8:1],1/8,
{8}3b/6,7,7,6b/3,2,2,1b/7,8,
1/7b,2/6,3/5,4,{16}5,4,5,4,{4}5h[4:1],
{8}C,B4,{16}B8,B7,{8}B6,B5,{16}E4,E3,{8}E2,E1,
C,{32}B2,B7,B1,B4,B6,B3,B8,B5,C,B1,B7,B3,{2}Ch[4:1],
{1}5>3>1<7[2:3],
{2},7q5[2:1],
5<6<1>2[1:1],5h[4:1],
2p4[2:1],{4}4p8<7<6>5[4:7],Ch[2:1],
,,E5,E7,
E8,E1,C,{8}6/4,5/3,
C,B8,{16}B4,B3,{8}B2,B1,{16}E8,E7,{8}E6,E5,
C,{32}B6,B3,B5,B8,B2,B7,B4,B1,C,B5,B3,B7,{2}Cfh[4:1],
{8}8/1,7/2,3/6,4/5h[8:9],{2}C,
C,C,
{8}5/4,6/3,7/2,8/1h[8:9],{2}C,
C,C,
{8}8/7,1/6,2/5,3/4h[4:1],C,2h[8:7],,,{2}C,
C,
{8}6/5,7/4,8/3,1/2h[4:1],C,8h[2:1],,1h[4:1],
,,2/7,4/5,4/5,{16}3,6,3,6,3,6,
{8}3-1[8:1],4,3b/5,6,7-5[8:1],8,7b/1,2,
3-8[8:1],4,3b/5,6,7-4[8:1],8,7b/1,2,
2-4[8:1],1,2b/8,7,6-8[8:1],5,6b/4,3,
2-5[8:1],1,2b/8,7,6-1[8:1],5,6b/4,3,
3v8[8:1],4,3b/5,6,7v4[8:1],8,7b/1,2,
3>8[8:1],4,3b/5,6,7<4[8:1],8,7b/1,2,
2v5[8:1],1,2b/8,7,6v1[8:1],5,6b/4,3,
2>5[8:1],1,2b/8,7,6/4,7/3,{4}2/8-4[2:3],
1h[8:1],2h[8:1],3h[8:1],4h[8:1],
5h[8:1],6h[8:1],{8}7,6/5,5/4-8[4:7]*-8[4:7],4/3,
,,{4}2h[8:1],1h[8:1],8h[8:1],
7h[8:1],6h[8:1],5h[8:1],5-1[2:3]*-1[2:3]*-1b[2:3],
{8}4,4,3,3,2,2,1,1,
8,8,7,7,Cfh[8:3],B7h[4:1]/B3h[4:1],{4}B2h[8:1]/B6h[8:1],
{8}8bx/1x,2,3,4b/5,6,7,8b/1,2/7,
3/6,4/5,6h/3h,{48}A3/A6,D3/D7,A2/A7,D2/D8,A1/A8,D1f,,,,,,,,,,,,,{4}2>5b[8:1],
8/2b,8/7<4b[8:1],7b/1,8,
{32}1b/B6f/E7/E6/A6h[8:1],2,3,4,,,,,,,,,2b/B7f/E7/E8/A7h[8:1],3,4,5,,,,,,,,,{4}6bp3b[1:1]/8bp5b[1:1],
{8},,,,,,,,,4h[8:3],
,,{4}5,2/7<4b[8:1],
1/7b,1/2>5b[8:1],2b/8,1,
{32}8b/E3/E4/B3f/A3h[8:1],7,6,5,,,,,,,,,7b/B2f/E3/E2/A2h[8:1],6,5,4,,,,,,,,,{4}3bq6b[1:1]/1bq4b[1:1],
{1},{4},{16}3,
5,4,6,5,7,4,6,3,5,2,4,
{8}1-4[8:1],6-2[8:1],1,6,3-8[8:1],7-4[8:1],3,7,
1v4[8:1],5v8[8:1],1,5,3v8[8:1],6v1[8:1],3,6,
2>4[8:1],6<8[8:1],2,6,3,5z1V35b[8:7]/1s5-7-1[8:7],,1/5,
,,,,,,,,8-4[8:1],
7-5[8:1],8,7,2-4[8:1],1-5[8:1],2,1-6[8:1]*-7[8:1],
,1-4[8:1]*-3[8:1],,1w5[8:1],,1,,,5b/6,
6,6,3/4b,3,3,8b/7,7,
7,2/1b,2,2,{16}8,7,1,2,7,6,2,3,
{1}4/5bxp8[8:13],
{2},4p8[8:1],
{4}7-5[8:1],7/8h[8:7],{8},5-1[8:1],,5,
,,{4}4h[4:1],{8}1-5[8:1],1,{4}1,
{8}2,2,{16}4,5,6,7,8/5,4,3,2,1/8,7,6,5,
4/8,1,2,3,4/1,8,7,6,5/4,3,2,1,{8}8/6,6,
5h[8:1],4h[8:1],3h[8:1],2h[8:1],1h[8:1],8h[8:1],7h[8:1],6h[8:1],
5h[8:1],4h[8:1],{16}3,2,1,8,7,6,5,4,{4}3h[4:1],
{8}5-1[8:1],6,5/4,3,5/4-8[8:1],3,4/5,6,
1/7qq5[8:1],6,7/1,2,7/1pp3[8:1],2,1/7,6,
5v8[8:1],6,5/4,3,5/4v1[8:1],3,4/5,6,
8/7-5[8:1],6,7/1,2,7/1-3[8:1],2,1/7,6,
6,6,{16}8,1,2,3,4/1,8,7,6,5/4,3,2,1,
8/4,5,6,7,8/5,4,3,2,1/8,7,6,5,{8}4/2,2,
1/7,7,7,7/5,5,5,5/3,3,
3,3/1,{16}1/3,4,1/5,6,7/1,2,3,4,{4}5-2[8:1]*pp1[2:1],
5,1qq5[2:1],{32}2,3,{16}4,{32},,,,4,3,{16}2,,,{8}1,
{16}7,8,7,8,{8}7h[4:1],,1-6[8:1]*pp5[8:5],8,1,
,,{4}5qq1[2:1],{32}6,7,{16}8,{32},,,,8,7,{16}6,,,{8}5,
{16}3,4,3,4,{8}3h[2:1],,5,,5>4>3>2<1<8<7[8:7],
,,1,1,{4}1,{8}4,4,
{4}4<6<8>2[4:3],{8}8,8,{4}8,{8}5,5,
{4}5-3-1-7[4:3],{8}1,1,{4}1,{8}4,4,
{4}4-7[8:1]*-1[8:1],4b,{8}8bx-5[8:1]*-3[8:1],1b/7b,{4}8b,
{16}4,5,4,5,4-1[8:1],5,4,5,{4}4,{16}7,8,7,8,
7-4[8:1],8,7,8,{4}7,{16}8,1,2/4,3/5,{4}4/6,
{16}8,1,8,1,8-5[8:1],1,8,1,{4}8,{16}3,4,3,4,
3,4,3,4,3,2,1,8,7/4,5,6,7,8,1,2,3,
4,3,4,3,5,4,5,4,6,3,6,3,7,2,7,2,
8,1,8,1,7,2,6,3,5,4,5,4,6,3,7,2,
8,1,8,1,8,1,8,1,8,1,8,1,8,1,8,1,
{1}8-4b[1.6129##0.1613],
{4}2b/1b,8bh/7b<4b[8:1],{32}1/7b,2,{16}3,,,{4}1/2>5b[8:1],
{32}2b/8,7,{16}6,,,{4}1,{32}8b/B3f/E3/E4/A3h[8:1]/D3h[8:1]/D4h[8:1],7,6,5,,,,,,,,,7b/B2f/E3/E2/A2h[8:1]/D3h[8:1]/D2h[8:1],6,5,4,
,,,,,,,,{4}3bpp6b[1:1]/1bp8b[1:1],{8},,,,,,,,,5h[8:3]/4h[8:3],
,,,,{4}7/2>4<5b[8:1],
{32}8/2b,7,{16}6,,,{4}8/7<5>4b[8:1],
{32}7b/1,2,{16}3,,,{4}8,{32}1b/E7/E6/B6f/A6h[8:1]/D6h[8:1]/D7h[8:1],2,3,4,,,,,,,,,2b/B7f/E7/E8/A7h[8:1]/D7h[8:1]/D8h[8:1],3,4,5,
,,,,,,,,{4}6bqq3b[1:1]/8bq2b[1:1],,,,,,8h[4:1]/1h[4:1],
,4/3>8b[8:1],{32}5/3b,6,{16}7,,,{4}5/6<1b[8:1],
{32}6b/4,3,{16}2,,,{4}5,{32}4b/B7f/E7/E8/A7h[8:1]/D7h[8:1]/D8h[8:1],3,2,1,,,,,,,,,3b/B6f/E7/E6/A6h[8:1]/D7h[8:1]/D6h[8:1],2,1,8,
,,,,,,,,{4}7bq7b[1:1]/5bp5b[1:1],{8},,,,,,,,,1h[8:3]/8h[8:3],
,,,,{4}3/6<7>1b[8:1],
{32}4/6b,3,{16}2,,,{4}4/3>2<8b[8:1],
{32}3b/5,6,{16}7,,,{4}5,{64}5b/A1f,D2/E2,6/A2,D3/E3,7/A3,D4/E4,{32}8/A4,{64},,,,,,,,,,,,,,,,6b/A2f,D3/E3,7/A3,D4/E4,8/A4,D5/E5,{32}1/A5,
,,,,,,,,{8}2b/4b,3/5,3/5,3/5,4/6,4/6,
4/6,5/7,5/7,5/7,8/6,8/6,1/7,1/7,
8/2,8/2,1/3,1/3,2-6[8:1],2,8-4[8:1],8,
3-7[8:1],3,5-1[8:1],5,3-6[8:1],3,7-2[8:1],7,
4,4,{4}4h[4:1]/5-1[8:1],5,{8}3,8h[4:1]/2-6[8:1],
,2,{4}7h[4:1],{8}5,5qq3[8:1],5,7,
7>2[8:1],7,5,5,4/6,6/4-2[8:1],,8/4,
{4}8-6[8:1],{8}8/2,1,{4}8-3[8:1],8p4[8:1],
8<6[8:1],8,{8}1b,8/2,8/2,6b,
7/5,7/5,3b,2/4,2/4,8b,1/7,1/7,
5b,6/4,5/3,4/6,8b,1/7,1/7,3b,
2/4,2/4,6b,7/5,7/5,1b,8/2,8/2,
4b,3/5,4/6,{16}3,5,{2}Ch[2:7]/4-8>1-5>4p5b[2:7],
,,,,,,,Ch[2:7]/6z2>3-6<7-2b[2:7],
,,,,,,,Ch[8:1]/4-1-6-3-8-4b[2:7],
E2,Ch[8:1],
E6,Ch[8:1],
E1,Ch[8:1],
C,Ch[8:1]/5pp5qq5b[2:3],
E1,Ch[8:1],
E2,{8}8b/1b,5/3,4/6,5/2,
4/7,6/2,3/5,6/2,{4}1v4[8:1]/7v4[8:1],1/7b,
{8}5/3b,2/6b,{4}1b/7-3[8:11],8-6[8:1],8b/1,
5-1[8:1],5b/6,2-4[8:1],2b/1,
{8}8,7/4,6/3-7[8:13]*-7[8:13],5/2,{4}4-2[8:1],4b/5,
1-5[8:1],1b/2,6-2[8:1]/4-2[8:1],4b-8[8:1]/6b-8[8:1],
6b/4b,4b-8[8:11]*-8[8:11]*-8b[8:11],5-3[8:1]*-3[8:1],2/5b,
2-6[8:1]*-6[8:1],2b/7,7-1[8:1]*-1[8:1],7b/2,
{8}2,1/6,7/8-4[8:15]*-4[8:15]*-4b[8:15],1/6,{4}2v7[8:1]*v7[8:1],2b/6,
6v3[8:1]*v3[8:1],6b/2,{8}2,1h[8:1]/7h[8:1],,,{4}1bv4[8:1]/7v4[8:1],
1/7b,8bx<6b[8:1]/1bxp5b[8:1],8bq4b[8:1]/1b>3b[8:1],
8b/1b,8b/1b,{32}8b/D6f/A5h[16:1]/B5h[16:1]/B6h[32:3]/A6h[8:1],1,2,3,,,,,1b/D7f/A6h[32:1]/B6h[16:1]/B7h[32:3]/A7h[8:1],2,3,4,,,,,5b/D8f/A7h[32:1]/B7h[16:1]/B8h[32:3]/A8h[8:1],
4,3,2,,,,,4b/D7f/A6h[32:1]/B6h[16:1]/B7h[32:3]/A7h[8:1],3,2,1,,,,,{4}5bx<7b[8:1]/4bxq8b[8:1],5bp1b[8:1]/4b>2b[8:1],
5b/4b,5b/4b,{32}5b/D8f/A8h[16:1]/B8h[16:1]/B7h[32:3]/A7h[8:1],4,3,2,,,,,4b/D7f/A7h[32:1]/B7h[16:1]/B6h[32:3]/A6h[8:1],3,2,1,,,,,8b/D6f/A6h[32:1]/B6h[16:1]/B5h[32:3]/A5h[8:1],
1,2,3,,,,,1b/D7f/A7h[32:1]/B7h[16:1]/B6h[32:3]/A6h[8:1],2,3,4,,,,,{4}8bx-6b[8:1]/2bx-6b[8:1],8b-4b[8:1]/2b-4b[8:1],
2b/8b,8b/2b,{32}1b/7b,2,3,4,5,6,7,8,1,2,3,4,5/8b,7,6,5,
4,3,2,1,8,7,6,5,{4}4/1b<8<7<6>5>1b[2:1]*>2>3<4<5<1[2:1],{16},,,,,,,,,,2/8,
3/7,,,5/6,4/7,,,3/4,2/5,,,8/7,1/6,
,,2/1,3h[16:9]/8h[16:9],,,,,,,,,{4}B1/B5/E3/E4/E8/E7/Cf/B8h[4:7]/B2h[4:7]/B4h[4:7]/B6h[4:7]/B7h[4:7]/B3h[4:7],
E
