&title=血狼打灰歌(Legend of Bloodywolf)
&artist=血狼破军
&first=-0.1
&des=STEXxx
&lv_5=0
&inote_5=(206.06){4},,{2}1-5[2:3]/8-4[1:1],
,,,8-5[2:1],
{1}5>3<5>3<5[1:1],
{2},2<7-3<6[2:1],
,7-5v4-2[2:1],
,8>5-8[2:1],
{16},,,,,,,,1,8,{8}1,,7,
{4}7h[8:1],8-4[8:1],{2}8<4[4:3],
{4}4,{32}3x,2x,,,,,,,,,,,,,,,{4}1-7[8:1],
1-3[8:1],1-5[8:1],{2}1>5[4:3],
{4}5,{32}6x,7x,,,,,,,,,,,,,,,{4}8-6[8:1],
8-2[8:1],8qq4[4:3],8,2,
3,1,4/2,3,
4/6,5,4,5/3,
1/5,{16}2,4,2,4,{8}3,3h[4:1],,5,
3/4,5/6,7/8-4[8:1],1/8,{4}2,3-7[8:1],
3/5,6-2[8:1],6/1,1-5[8:1],
1/5,6<1[8:1],{24}2,3,4,5h[8:1],,,,,,1,8,7,
6,5,{12}4,{24},,6,5,4,3,,,8,7,6,5,4,3,{4}2-7[8:1]*-5[8:1],
{2}2,{4}1-5[8:1],8,
6-3[8:1],7,4-8[8:1],1,
7-3[8:1],6,{32}8,1,2,3,4,5,{16}6h[16:1],{4}8,
{32}2,3,4,5,6,7,{16}8h[4:1],{4}2,{32}7/2,1/6,8/5,7/4,,,,,{4}5-1[8:1]/2-4[8:1],
{2}5/2,{4}8-5>4[4:1],4-1<8[4:1],
8-5>4[4:1],4-1<8[4:1],8-5>4[4:1],4-1<8[4:1],
8-5>4[4:1],4-1<7[4:1],7-4>3[4:1],3-8<7[4:1],
7-4>3[4:1],3-8<7[4:1],7-4>3[4:1],3-8<7[4:1],
7-4>3[4:1],3-8[16:3],8<4[4:1],4>8[4:1],
8<4[4:1],4>8[4:1],8b<4[4:1],4b>8[4:1],
8b<4[4:1],4b>8[4:1],8b<4[4:1],4b>8[4:1],
8b<4[4:1],4b>8[4:1],8b<4[4:1],4w8[4:5],
,,,,,,,6<2v4[4:5],
{1},{4},,{16}5b,
5b,5b,5b,5b,5b,5b,5b,
{32}5b/Cf,B1,,,,,,,,,,,,,,,{16}7-4[8:1],8,{8}7,1,2,
{16}1-4[8:1],8,{8}1,{4}7,{16}6-1[8:1],5,{8}6,4,3,
{16}4-1[8:1],5,{8}4,{4}6<2[4:1],{8}2<5[4:1],4,5<1[4:1],4,
2,4,{4}5,1-6[8:1]/5-2[8:1],5/1-5[8:1],
8/1b-4[8:1],1,8-3[8:1]/4-7[8:1],4/8-4[8:1],
1/8b-5[8:1],8b-3[8:1]*-4[8:1],8b-6[8:1]*-5[8:1],8b-2[8:1]*-3[8:1],
8b-6[8:1]*-5[8:1],8bw4[8:1]b,,2h[2:1],
{8}1,1,3,3,{16}2,4,2,6,2,8,2,2,
{4}2-6[8:1],2b/1/Cf,{16},,,,6-1[8:1],5,{8}7,
{4}5-8[8:1],5,{16}7-4[8:1],8,{8}6,{4}8,
8-4[8:1]*-3[8:1],8,8-6[8:1]*-4[8:1],8,
8-4[8:1]*-2[8:1],8,8<5[8:1],8/1>4[8:1],
1/8-4[8:1],8/1,{16}3-8[8:1],4,{8}2,{4}4-1[8:1],
4,{8}7,7,{16}6-1[8:1],5,{8}7,{4}5-8[8:1],
5,2<7v5[16:3],2/3,{16}1b,5b,1b,5b,
{4}1b,6/2,{16}2b,6b,2b,6b,2b,6b,3b,7b,
3b,7b,3b,7b,{4}3b,{2}4>1[8:1]/8<5[8:1],
4q8[8:1]/8q4[8:1],5>2[8:1]/1<6[8:1],
5q1[8:1]/1q5[8:1],{4}4-1[8:1]/8-5[8:1],4/8,
4V68[8:1]/8V24[8:1],4/8,5>2[8:1]/1<6[8:1],5/1,
5q1[8:1]/1q5[8:1],1/5,{16}2,3,4,5,8,7,6,5,
1,2,3,4,8,1,2,3,4,5,1,2,3,4,5,6,
{4}7/3,1/5,{2}5>8[8:3]/8-5[8:3],
{4},,5/1,7/3,
{1}4b/8-4[8:1]*-4[8:1],
E
