&title=天天天国地獄国 (feat. ななひら & P丸様。)
&artist=Aiobahn +81; ななひら; P丸様。
&first=0
&des=Mr_HaoZi
&lv_5=13
&inote_5=(140)
{1},
{4},,,1s5[4:3],
{1}Cf,
{8}6h[4:1],,1,{16},7,2-5[8:1],2,7,,{4}2,
{8}3h[4:1],,8,{16},2,7-4[8:1],7,2,,{4}7,
{8}5h[4:1],,2,{16},6,1-5[8:1],1,6,,{4}1,
{8}4h[4:1],,7,{16},3,8-4[8:1],8,3,,{4}8,
{4}2pp1[4:1],6,6qq8[4:1],3,
{4}2pp1[4:1],6,6qq8[4:1],3,
{8}2,2,2-5[8:1],1,8,7,6,,
{8}1-5[8:1],7-3[8:1]/8,1,7,,4,3,2,
{8}1qq3[4:1],,5,,7-3[8:1],7,1-5[8:1],1,
{4}1x^4[8:1]*^6[8:1],1xw5[8:1],1x,C,
{8}6qq1[4:1],,2,,3-7[8:1],3,5-8[8:1],5,
{4}5x-2[8:1]*-3[8:1],5xw1[8:1],5x,C,
{8}2pp5[4:1],,8,,6-2[8:1],6,8-5[8:1],8,
{4}8xV24[8:1]*q4[8:1],8xV63[8:1],8x,C,
{8}4,3,2,1,6,7,8,1,
{4}1x-7[8:1]*-6[8:1],1xw5[8:1],1x,C,
{8}2bx,,3h[4:1],,8b,,2-5[8:1],2,
{8}7-3[8:1],7,1-4[8:1],1,8^5[8:1],,8,,
{8}1-4[8:1],1,6-3[8:1],6,2-6[8:1],2,5^8[8:1],,
{8}5,4,3,2,1b,,8-3[8:1],3-8[8:1],
{8}8^5[8:1],,4-2-7-3[8:2],,4,,5-7[8:1],5-2[8:1],
{8}5x-8[8:1],5x-3[8:1],5x-1[8:1],5x,5x,,2-6[4:3]b,2,
{1}2hb[4:3],
{8}1-5[8:1],8-6[8:1],1,8,1w5[8:1],,1,,
{8}8-4[8:1],4-8[8:1],8V64[4:1],3-8[8:1],4-7[8:1],3,,,
{8}1-4[8:1]b,,7,6,5,4-8[8:1],4,4,
{8}1-4[8:1]b,,7,6,5,4-8[8:1],4,4,
{8}1-4[8:1]b,,7,6,5,4-8[8:1],4,4,
{8}2-6-8[4:1],2,8-4^1[4:1],,1-5[8:1]*^6[8:1],,,,
{8}7-2[8:1]b,,2,3,4,5-1[8:1],5,5,
{8}7-2[8:1]b,,2,3,4,5-1[8:1],5,5,
{8}7-2[8:1]b,,2,3,4,5-1[8:1],5,5,
{8}6pp1[4:1],2^5[8:1],1<6[8:1],2z6[4:1],,,,,
{8}8^3[8:1]b,,4,4,3,2-5[8:1],2,2,
{8}8^3[8:1]b,,4,4,3,2-5[8:1],2,2,
{8}8^3[8:1]b,,4,4,3,2-5[8:1],2,2,
{8}7-2[8:1],2-4-8[4:1],7,8^5[8:1],5-1[8:1],4,3,2,
{8}1-5[8:1]b,,7,6,5,4-8[8:1],4,4,
{8}1-5[8:1]b,,7,6,5,4-8[8:1],4,4,
{8}1-5[8:1]b,,1/8-4[8:1],7,18,2x,3x,4x,
{8}7V51[4:1],2^5[8:1],1^7-3[4:1],2,,4-8[8:1],4,,
{4}6^1[8:1],6^3[8:1],6,C,
{8}1^4[8:1],6,1-6[8:1],6-3-8[4:1],7^4[8:1],7,,,
{4}4q8[8:1]/8q4[8:1],4^1[8:1]/8^5[8:1],48,C,
{8}3-7^1[4:1],3,1-5^3[4:1],1,2-6[8:1],2,,,
{4}3^1[8:1]/6v1[8:1],3v8[8:1]/6^8[8:1],36,{8}C,1,
{8}5,6,7,8,3,2,1,8,
{8}5<1-5[8:3],5,2-4[8:1],,2,,{32}7x,8x,7x,8x,7x,8x,7x,8x,
{2}7p4[4:1],3p8[4:1],
{2}7pp4[4:1],3pp8[4:1],
{4}7-5[8:1],8-4[8:1],1-3[8:1],,
{4}2-4[8:1],1-5[8:1],8-6[8:1],,
{4}6pp3[4:1],,2pp7[4:1],,
{4}6p3[4:1],,2p7[4:1],6x-4[8:1],
{4}6-8[8:1],6/2-4[8:1],2-6[8:1],2/8-5[8:1],
{4}8/4-1[8:1],4/8-5[8:1]b,4b/8b,3-7[8:1],
{4}3/5-1[8:1],5/2-6[8:1],2/8-4[8:1],8/1-5[8:1],
{8}1,,8pp4[4:1],7-5[8:1],8,,,,
{4}6-1[8:1],6/3-7[8:1],3/8-5[8:1],8/2-5[8:1],
{8}2,,2^4-8[4:1],2,7-5[8:1],8-4[8:1],7-2[8:1],,
{4}7-4[8:1],7/3-6[8:1],3/8-4[8:1],8/2-6[8:1],
{8}2,,8pp4[4:1],7-5[8:1],8,,,,
{4}1-6[8:1],1/5-8[8:1],5/3-7[8:1],3/4-1[8:1],
{8}45,,5-1-7-4[4:1],5,8-3[8:1],,,,
{8}2-7[8:1],7-4-1[4:1],8-5[8:1],8,,,C,,
{8}5^8[8:1]b,,3,2,1,8-4[8:1],8,8,
{8}5^8[8:1]b,,3,2,1,8-4[8:1],8,8,
{8}5^8[8:1]b,,3,2,1,8-4[8:1],8,8,
{8}6-2[8:1],2V85[4:1],3,3-7^4[4:1],,,,,
{8}5^8[8:1]b,,3,2,1,8-4[8:1],8,8,
{4}5^8[4:6]b,5h[4:3]/3,,,
{1},
{8}5^8[8:1]b,,3,2,1,8-4[8:1],8,8,
{8}5^8[8:1]b,,3,2,1,8-4[8:1],8,8,
{8}5-1[8:1],1-5[8:1],5<1V75[8:3],3,3-8[8:1],,,,
{8}1-4[8:1]b,,6,7,8,1-5[8:1],1,1,
{8}1-4[8:1]b,,6,7,8,1-5[8:1],1,1,
{8}1-4[8:1]b,,6,7,8,1-5[8:1],1,1,
{8}3-7-5-1[8:3],3,1,1^4[8:1],8^5[8:1],8,,,
{8}1-5[8:1]b,,1b/2b,2,2x-5[8:1],{16}3,4,{8}2,8-4[8:1],
{8}1,8^5[8:1],,8,3x-8[8:1],{16}2,1,{8}3,5-1[8:1],
{8}5,,,,7x-4[8:1],{16}8,1,{8}7,3-6[8:1],
{8}1,3,,,2-8[8:1]/5,{16}3,4,{8}2-5[8:1],5>1[8:1],
{8}2,,6,7,8,1-5[8:1],1,1,
{8}3^8[8:1],7^5[8:1],3,7,4-1[8:1],8,4-7[8:1],5,
{8}4/5-1[8:1],5,5^8[8:1],3,5,2-6[8:1],18,2,
{8}7-4[8:1],8,7/2-8[8:1],3,6-2[8:1]/2,5,1-4[8:1],8,
{4}1w5[8:1],1^4[8:1]*^6[8:1],1-5[8:1],1,
{8}8b-5[8:1]b,,2-7[8:1],2,2/8b-5[8:1]b,,8,,
{8}8b-5[8:1]b,,3^1[8:1],4,3/8b-5[8:1]b,,8,,
{4}8b-5[8:1]b/3-8[8:1],38,8b-5[8:1]b/3-7[8:1],38,
{8}8b-5[8:1]b,,8,1,2,3^1[8:1],4,,
{8}8b-5[8:1]b,,3,3^8[8:1],8b-5[8:1]b*-4[8:1],,,,
{8}8b-5[8:1]b,,3,3^8[8:1],8b-5[8:1]b*-4[8:1],,,,
{4}8b-5[8:1]b,3-6[8:1],8b-5[8:1]b,3-6[8:1],
{8}8b-5[8:1]b,,4-8^2[4:1],4,2-5[8:1],,7>2[4:1],,
{1}2^5[4:1]*-7-1-6pp3[4:11],
E
