&title=Berry Go!!
&artist=Freezer; 妃苺
&first=-0.119
&des_1=某N氏
&des_2=某N氏
&des_3=某N氏
&des_4=某N氏
&des_5=某N氏
&lv_5=13+
&des_6=某N氏
&des_7=某N氏
&des=某N氏
&inote_5=(175){4},{16},,,,,,,,1,,,1,
,,{8}1,{16}7,7,3,5,4,4,{8}6,3/5,{16}4,4,
{8}6h[8:1],7,{16}1b,1x,{8}1x,{16}5b,5x,{8}5x,{4}2h[8:1]/4h[8:1],
5h[8:1]/7h[8:1],{16}6,6,3,4,2,2,7,5,{8}6h[8:1],5,
6h[8:1],5,{16}3,4,{8}3,{16}6,5,{8}6,3,4,
6,5,{16}3,3,6,5,7,7,2,5,{8}6/4,{16}5,5,
{8}3h[8:1],2,{16}8b,8x,{8}8x,{16}4b,4x,{8}4x,{4}7h[8:1]/5h[8:1],
4h[8:1]/2h[8:1],{16}3,3,6,5,7,7,2,4,{8}3h[8:1],4,
3h[8:1],4,{16}6,5,{8}6,{16}3,4,{8}3,{16}6h[16:3],,,5h[16:3],
,,{8}4,{16}3,4,{8}3,{16}6,5,6,5,{8}8b,{16}3,4,
{8}2pp5[2:1],2,5,5,6,6,8,{16}2,1,
{8}2,8,5/4,5/4,{16}6,5,{8}7,2-5[8:1],2,
8-4[8:1],8,3v2-4[4:1],3,{16}5x,6x,7x,8x,{4}1xh[8:1],
1h[8:1]/5h[8:1],3h[8:1]/7h[8:1],{16}6,5,6,5,{4}8h[8:1],
{16}8,1,8,1,{8}8,2/7,3/6,4/5,{4}4/5,
{16}4,5,4,5,{8}4,3/6,{16}2,2,4,4,{4}5qq1[4:3],
{16},,,,,,,,,,,,8h[2:1],,,E7,
,,{8}E6,E5,E4,{4}8-5[8:1]/1-4[8:1],8/1,
3h[2:1],2-5[4:1],2,3,
4/6,7-4[4:1],7,3h[4:1],
6h[2:1],7-4[4:1],7,6,
5/3,2-5[4:1],2,6h[2:1],
{8}7,8,{4}1-4[8:1],{8}1,5,{4}3/6,
5-1[8:1]/4-8[8:1],4/5,2-5[8:1],4-7[8:1],
{8}8,8,1,1,8-4[8:1],8,2-6[8:1],2,
{4}5h[2:1],{16}7x,8x,1x,2x,{4}3x-6[8:1],3,
7-2[8:1],7,{8}3-8[4:1],3,7V51[4:1],7,
,,{4}2-5[8:1]*-7[8:1],2,6/4,
{8}7-2[8:1],7,{4}3<6[4:1],{8}3,7,{4}7>2[4:1],
7,4-7[8:1]*-1[8:1],4,8h[4:1],
1V35[4:1],1/5V71[4:1],1V35[4:1],{8}5,6,
7,8,1-6[8:1],1,{4}4h[8:1],{8}4/E6/B5/A5,4,
4,4,{16}4,5,3,6,2,7,1,8,{4}1s5[4:1],
,7,4-8[8:1]/2-5[8:1],4V26<7[4:1],
{2}7V13[4:1],{8}4,4h[8:7],{4}B6/E6/B5,
1b,E3/B3/B2,C,7qq4[4:3],
4h[8:1],3h[8:1],2,{12}1b,1x,1x,
3b,3x,3x,5b,5x,5x,{4}7bqq8qq7>2[1:1],3xh[4:3],
,,,E4h[4:3],
B1/E2/A1,B7/E7/B6,B5/E5/A5,{16}7,1,7,1,
7,1,7,1,8,2,8,2,8,2,8,2,{4}8-4[8:1],
8b/E3f,{32}5h[8:1]/A1,D1,A8,D8,{8}A7,{4}C,2-4[8:1]/8-4[8:1],
8-6[8:1]/2-6[8:1],8/2,{8}8x,8x,{4}7-5[8:1]/1-5[8:1],
1-3[8:1]/7-3[8:1],1/7,{8}4,3,{4}2qq1[4:1],
{8}1>4[4:1],7,{4}6V84[4:1],B6,2-7[8:1]*-5[8:1],
2,6h[8:1],8bx/E4fh[4:3],{32}8bx,1x,{16}2x,{32},,,,8bx,
1x,{16}2x,{32},,,,A6,B6,C,B2,{8}A2f,{32},,,,,,,,1bx/E6fh[2:1],8x,{16}7x,{32},,,,1bx,
8x,{16}7x,{32},,,,A3,B3,C,B7,{8}A7f,,,{4}5-8[8:1],
4,{8}7/1,7/1,2-7[8:1]/6-3[8:1],6/2,{4}6V84[4:1],
E7f/D7,1bh[8:1],3-5[8:1]/1-5[8:1],3-7[8:1]/1-7[8:1],
3/1-5[8:1],1b,6-8[8:1]/3-1[8:1],3-5[8:1]/6-4[8:1],
3/6-8[8:1]*-1[8:1],6,2V46[4:1],6V42[4:1],
1h[8:1],8h[8:1],7-4[8:1],7/2-5[8:1]*-4[8:1],
2-7[8:1]*-8[8:1],2,{8}6,6,{32}2bx,3x,{16}4x,{32},,,,2bx/8-5[8:1]*-6[8:1],
3x,{16}4x,,,{4}8,{8}3,3,{32}7bx,6x,{16}5x,{32},,,,7bx/1-4[8:1]*-3[8:1],
6x,{16}5x,,,{4}1,{8}7pp2[1:1],7,{4}3h[8:1],
4h[8:1],5h[8:1],6h[8:1],{8}4-8[8:1],4,
2-5[8:1],2,{4}7h[4:1],6-2<1-5[8:3],{8}6/5,5,
4,4,3-8[8:1],3,7-4[8:1],7,,2h[4:1],
,1,{16}7-3-5[4:1],8,7,8,{4}7,{8}1-5[8:1],1,
8-4[8:1],8,,2h[4:1],,3-8V24[8:3],,3/4,
,,6,6,{4}3/5,{16}3,4,{8}3,
{16}6,5,{8}6,{16}3,4,{8}1,{16}6,5,{8}8,3/1,1/3,
5/7,5/7,2-6[8:1],2,{4}8h[8:1],{8}7,7,
6,6,5,5,4,4,{4}3q5[2:1],
,5-8[8:1]*-2[8:1],,1h[2:1],
2,8h[2:1],{8}7,7,1-5[8:1],1,
8-4[8:1],8,{4}E2/B2,5-2[8:1],5/6,
{8}E7,E6,{4}E5/2pp5[2:1],5h[8:1],6h[8:1],
7h[8:1],8-4[8:1]*-3[8:1],8,5/2,
8h[2:1],7,{8}1h[2:1],2,3,4,
5-8[8:1],5,1-5[8:1],1,{4}E7/B7/A7,3/4-7[8:1],
{8}4/5,5h[4:1],E3,E4,{4}E5/7qq4[2:1],4,
3h[8:1],2h[8:1],1-5[8:1]*-6[8:1],1,
4/7,5/2V86[4:1],{8}6V82[4:1],5,{4}4h[8:1],
5h[8:1],{8}6-8[8:1]*-1[8:1],6,,,{4}5/2,
4/7V13[4:1],3V17[4:1],{8}5,5,,3,
3-8[8:1],{32},,,,,,,,A7,D7,{16}A6,{32}A1,D2,{16}A2,{8}8,{4}8-5[8:1]*-3[8:1],
8,4-7[8:1]*-1[8:1],,8V24[4:1],
4V68[4:1],{8}8V24[4:1],8,{4}4b-8b[8:1],{8}2-6[8:1],2,
7,7,{16}7h[2:1]/B8,B1,B2,B3,B4,B5,B6,B7,{4}Cf,
1s5v2b[8:3],,,6<3[4:3],
,,,4-7[8:1],
7-2[8:1],2-5[8:1],,6h[4:1],
{8}5,5,3,3,4,4,{16}2,1,{8}2,
{16}7,8,{8}7,{16}6,3,5,4,{4}6-3[8:1],6/1h[4:3],
2-7[8:1],2,8-4[8:1],2-6[8:1],
7-4[8:1],3-8[8:1],{16},,,,7,1,7,1,
6,2,6,2,5,3,5,3,4,4,4,4,{4}4q5[2:1],
,,,2z6[4:1]/7s3[4:1],
7/2V86V41-7[2:1],{16},,,,,,,,6,5,6,5,
6,7,6,7,{8}6>3[8:1],6,2<7[8:1]*V86[8:1],2,{4}2v5[8:1]*-4[8:1],
2,{8}7-4[8:1],7,{16}8x/7,1x,2x,3x,6,5,{8}6,
{16}3,4,{8}3,6/5,5/6,3/4,4/3,{4}7s3[4:1]/2z6[4:1],
2/7V13V58-2[2:1],{16},,,,,,,,3,4,3,4,
3,2,3,2,{8}3<6[8:1],3,7>2[8:1]*V13[8:1],7,{4}7v4[8:1]*-5[8:1],
7,{8}2-5[8:1],2,{16}1x/2,8x,7x,6x,3,4,{8}3,
{16}6,5,{8}6,{16}3,4,{8}3,{4}2>5[4:1],5<8[4:1],
8>3[4:1],3,{8}4,4,{4}5>2[4:1],
2<7[4:1],7<4[4:1],{8}4,3,{4}2pp2[8:3]*qq2[8:3],
{8},,,,6>3[4:1],6,{4}3>8[4:1],
8bV24b[4:1],7,7<4[4:1],4>1[4:1],
1<6[4:1],6,{8}5,5,{4}4<7[4:1],
7>2[4:1],2>5[4:1],{8}5,6,{4}7-4[8:1]*-5[8:1],
7,{8}3,3,4,4,{4}5-7[8:1],
5-3[8:1],5-1[8:1],5,8h[8:1]/7h[8:1],
1h[8:1]/2h[8:1],2-5[8:1]/7-4[8:1],2/7,1h[8:1]/2h[8:1],
8h[8:1]/7h[8:1],7-4[8:1]/2-5[8:1],7/2,6qq8[2:1],
{8}1,1,{4}2>4[8:1],2,7/5,
2-5[8:1]/4-8[8:1],4/2,E7/D7/A7,5h[8:1]/6h[8:1],
6-1[8:1]/3-8[8:1],6/3,5h[8:1]/6h[8:1],4h[8:1]/3h[8:1],
3-8[8:1]/6-1[8:1],3/6,2qq4[2:1],{8}5,5,
6V84-7[8:3],6,,,,,2-5[8:1]/1-5[8:1],3/8,
{4}1/2,4h[8:1]/7h[8:1],7/4,6/5-8[8:1],
4/5-2[8:1],5/6,{8}1x,1x,{4}1-3[8:1]*-7[8:1],
{2}1-5[8:1],{8}7,7,{4}7>2[4:1],
2>5[4:1],{8}5<8[4:1],5,8,1,{4}2-4[8:1]*-6[8:1],
2,7x/8x,2x-4[8:1]/1x-5[8:1],2x/1x,
2x-6[8:1]/1x-7[8:1],2x/1x,{8}5x,5x,{4}7x-5[8:1]/8x-4[8:1],
7x-3[8:1]/8x-2[8:1],8x/7x,{8}4,4,{4}4h[4:7]/2V41-5pp8[2:3],
,,,,,,,1-4[8:1]/2-5[8:1],
2-7[8:1]/1-6[8:1],2/1,{8}4,4,{4}8-5[8:1]/7-4[8:1],
7-2[8:1]/8-3[8:1],7/8,{16}4,5,4,5,1,4,3,4,
3,3,8,8,5,6,5,7,2,4,3,5,{4}2p5[4:1],
5<2[4:1],{8}4,4,{16}E5,E6,{8}E7,{4}8-5[8:1]/7-4[8:1],
7-2[8:1]/8-3[8:1],7/8,{8}5,5,{4}1-4[8:1]/2-5[8:1],
2-7[8:1]/1-6[8:1],2/1,{16}5,4,5,4,8,5,6,5,
6,6,1,1,4,3,4,2,7,5,6,4,5h[16:3],,,4h[16:3],
,,{8}3x,3x,5xh[4:3],{16},,,,1b,8x,{8}7x,
{16}1bx,8x,{8}7x,{4}E7f/B6/A6/E6,{8}4x,4x,{16}8b/4xh[2:1],1x,{8}2x,
{16}8bx,1x,{8}2x,{4}E3f/B3/A3/E4,{16},,,,6,5,7,4,
4,5,5,2,2,4,3,7,5,6,1,4,{8}3-8[8:1],3,
7-4[8:1],7,{4}2h[8:1],8,{16}3b/8b,2x/7x,{8}1x/6x,
{16}1bx/6bx,2x/7x,{8}3x/8x,{4}E5f/B5/B4/D5/A5/A4,1b/6b,{16}1b/6b,7x/2x,{8}8x/3x,
{16}8bx/3bx,7x/2x,{8}6x/1x,{4}E5f/B5/B4/D5/A5/A4,{16}E7,B7,B8,E1,{4}1xV36-8[2:1],
{16},,,,,,,,,,,,3bx,4x,5x,6x,
2bx,3x,4x,5x,1bx,2x,3x,4x,{4}8bx,8xq1[2:5]*<1[2:5],
E
