&title=Albedo
&artist=void (Mournfinale)
&first=0
&des=Ice Water
&des_5=Ice Water
&lv_5=14
&inote_5=(163){1},,,6p2>6[1:7]/2p6<2[1:7],,,,,,,,
{16}4,5,4,5,,,1,8,2qq5[8:3],7,,,2/6,,6,,,,B7/E7/B6,,,,6-8-4[8:3],,,,6/2,,,,,,3,2,1,8,,,7,6,5,4,,,E8,,C,,E4,,E2,,C,,E6,,
{24}D8/E8,,D7/E7,,D6/E6,,D2/E2,,D3/E3,,D4/E4,,C,,,,,,,,,
{16}5/4>1[16:2],,3,,4/5,,,,8-4[16:2],,7,,1/8,,,,3-5[16:2],2,4,,7/3>1-5[16:6],,,,3/E8,E7,E6,,,,,,7,,6,,6-1[16:3],,,,6/4,,2-8-4[16:3],,,,2,7,7b<4[16:3],,,,7b,2,2,,,,
{16}2bxh[4:1]/Cfh[4:15],,,,B2,,,,3h[4:1],,,,B3,,,,4h[4:1],,,,B4,,,,5h[4:1],,,,B5,,,,6h[4:1],,,,B6,,,,7h[4:1],,,,B7,,,,8h[4:1],,,,B8,,,,1h[4:1],,,,B1,,,,
{16}2xh[8:1]/7xh[8:1],,,,1xh[8:1]/5xh[8:1],,,,7xh[8:1]/3xh[8:1],,,,4xh[8:1]/6xh[8:1],,,,5xh[8:1]/3xh[8:1],,,,1xh[8:1]/8xh[8:1],,,,7xh[8:1]/5xh[8:1],,,,2xh[8:1]/4xh[8:1],,,,
{16}4,5,4,5,3,6,4,5,3,6,2,7,4,6,3,5,6bh[8:3]/2bh[4:3],,,,,,,,,,,,,
{32},,,,,,2/6,3/7,4h[16:3]/8h[16:3],,,,,,,,,,,,,,
{16}4,8,3,7,2,6,1,5,3,7,1,5,3,6,2,7,1,2,3,7,6,5,
{32}8,1,2,3,4/5,,,,
{16}7,5,6,4,5,3,6h[2:1]/2h[16:3],,,,3,4,5h[8:5],,,,,,7,8,1h[16:5],,,,,,
{32}5p3[8:3],4,3,2,1,8,7,6,5/C,,
{16},,,,,,,2h[16:1]/7<4[8:1],,2h[16:1],,7/2h[16:1],,2h[16:1],,7h[16:1]/2>5[8:1],
,7h[16:1],,2/7h[16:1],,7h[16:1],,8h[16:1]/1h[16:1],,7h[16:1]/2h[16:1],,
{32}6x,3x,6x,3x,,,,,
{16}4b-1-6[16:6],,,,4b,,,6b-3-8[16:6],,,,,8bx-5-2[16:6],,,8b,,,,
{16},6b,,,6b,
{32}8,7,6,2,3,4,7,6,5,2,3,4,5,6,7,8,5h[4:1]/1-7v4[4:1],,,,,,,,,,,,,,,,
{16}6,3,8,2,6,5,7,4,5,3,4,3,6,7,2/8,3,4,5,8,7,6,5,4/3,,
{16}2-5-3[4:1],,7f,7,2b,,,,8w4b[8:1],,,,8bx,,A4f,,,,
{16}5,5,5,,4/6,,
{12}3bx/7bx,7/3,7/3,2bx/8bx,2/8,2-8-5[16:4]/8-2-5[16:4],
{16},,,,,,,,3,6,2,7,3,6,4,5,
{32}4/6,3,2,1,7,6,5,3,2,1,7,6,5,A1,A2,A3,A4,A5,A6,A7,A8/Ch[16:4],,,,,,,,,,,,1/8bxh[16:2],2,3,{8}4,{32},6,5x,6,,3,4x,3,,5xh[16:2]/Ch[4:1],,,,,,,,,,,,4x,3,2,1h[16:2],,,,,7,6,5,4,8,7,6,5,
{16},,3b>1b[8:1],,1<7b[8:1],,7<5b[8:1],,5s1[16:4]*-1[16:4],,,,
{16},,,,,,2/7p4[8:3],,3,3,7,,2,2,,,3,6,2,4,5,3,6h[16:3]/2h[16:3],,,,
{32}3,4,5,6,7,8,1,2,5/3h[8:1],,,,,,,,
{16}5-2[8:1],,2-6[16:3],,A5,,,,3bxh[8:3],,E8,C,E4,,,,7bxh[8:3],,E2,C,E6,,,
{32}2,3,4,5,6,7,8,1,2,
3,4h[8:3]/6h[8:4],,,,,,,,,,,,,,,,,,
{16}4,6,2,8,4,6,2,8,1,7,2,6,3,5,4,6,3,5,4,
{32}7bx,6bx,2bx,3bx,,,,,
{12}3xh[16:1]/E6,,,7xh[16:2]/E2,,,4xh[16:1]/E8,,,1xh[16:2]/C,,,
{16}5xh[16:12]/E4,,E3,,E2,,E1,,E8,,E7,,E6,,,,
{16}6xh[16:6]/E5,,E4,,E3,,,,2xh[16:6]/E8,,E7,,E6,,,,1/7xh[16:6],,1,,1,,,,2/4xh[16:6],,2,,2,,,,3/7xh[16:6],,3,,3,,,,8/4xh[16:6],,8,,8,,,,3/6xh[16:6],,2,,1,,8,,7/2xh[4:1],,6,,5,,4,,8/1-5[4:1],
{16},,,5-3[4:1],,,,3-8[4:1],,,,8-3b[4:1],,,,3b-6b[4:1],,,,6b-1b[4:1],,,,Ch[16:4],,,,,,,,
{16}3,7,3,7,4,5,3,4,2,5,4,6,5,7,3,5,4,7bh[16:2]/3bh[8:4],,,E8/D8,E1,E2,,,D4/E4,D5,D6,,,,,
{32}1bxw5[16:2],8/2,7/3,6/4,5,,,,,,,,,,,,
{16}2,4,3,7,5,6,3,4,2,6,5,7,D3,B3,B5,D6,D7,B7,B1,D2,
{32}3,4,5,6,7,8,1,,
{24}A4/A3/E4,,,,E2/A1/A2,,,,,A7/E7/E8,,,A5/E6/E5,,,,,,
{16}B3/E3,,E7/B6,,,,4,5,3,,6/2,,
{12}4bx,4bx,4bx,2bx/6bx,2bx/6bx,2bh[16:7]/6bh[16:7],,,,,,,
{16}3,6,2,4,2,7,5,7,
{32}3,4,5,6,7,8,1,2,3/6,5,4,3,2,1,8,7,6/3h[16:6],,,,,,,,,,,,,,,,
{32}E3,B3,B4,E5,,,,,A7,D7,A6,D6,D3,A2,D2,A1,C/B5/E5/B4,,,,,,,,8bx-4-2[4:1]/1bx-5-7[4:1],,
,,,,,,1/8,,,,A4/A5,,,,,,,,3/7xh[16:6],,4,,5,,6,,8,,1,,2,3,4,5,6,7,8,1,C/2h[16:14],,,,,,,,,,,,,,,,,,,,,,,,,,,,,,,,
{24}E6,,,E7,,,E8,,,E1,,,E2,,,E3,,,E4,,,E5,,,
{4}7-4[16:24]/1-4[16:24],,,,,,,,
{4}6<2[16:24]/2>6[16:24],,,,,,,,
{4}4-8[16:24]/8-4[16:24],,,,,,,,
{4}5-8[16:24]/8>5[16:24],,,,,,,,
{4}6q2-5>1[4:15]/2q6-1<5[4:15],,,,,,,,,,,,,,,,,,,,
{16}2h[16:3],,,5,,,4h[8:1],,5h[16:3],,,,,,
{24}3h[8:1],,,6h[16:3],,,,,,,,,2h[8:1],,,7h[16:3],,,,,,,,,1h[8:1],,,8h[16:3],,,,,,,,,2/5,,,2h[16:3]/5h[8:3],,,,,,,,,,,,
{16}7/1h[16:2],,,,8/1h[16:2],,,,8/2h[16:2],,,,1/2h[16:2],,,,4/3h[16:2],,,,2/5h[16:2],,,,3/6h[16:2],,,,4/5h[16:2],,,,4/6h[16:2],,,,8/6h[16:2],,,,2/7h[16:2],,,,8h[16:2]/3-7[4:1],,,,7-4[4:1],,,,4-1[4:1],,,,1-5[16:2]*<6[16:2],
{16},,,,,,,3,,B7/E8/B8/3,,3,,B6/E6/B5/3,,C/3,,3,,1b,6,1,6,1,6,2b,5,2,5,2,5,3b,4,3,4,3,5,3,6,4,5,3,6,4,5,4,5,2,7,5,4,8,1,7,2,6,3,5,4,6,3,5,1/8,2,3,4,5,8,7,6,5/1>3[16:3],,,3x<5[4:1],,D2,,5x<7[4:1],,A4,,7x-1[4:1],,A6,,1x-3[4:1],,A8,,3x-5[4:1],,A2,,Cfh[4:1],,,,,,
{16}2bx-5[8:1]/6bx-1[8:1],,,,6<1[8:1]/2>5[8:1],,,,6/2v5[8:1],,,,2/8v5[8:1],,,,2-6[8:1]/8-6[8:1],,,,2/8-4[8:1],,,,8<5[8:1]/2>5[8:1],,,,2-7[8:1]/8-3[8:1],,,,8/2,,,,4,,5/3,,6-8[8:1]/2-8[8:1],,,,6/2-5[4:1],,,,2b/5-8-2[4:1],,,,2bx-5[16:3],,6,7,8,,,,
{32}1/8,,,7,6,5,2,3,4,,,,,,,,
{16}2/5,,3,4,2/5,,6/1,,7-4[8:1]/3v8[8:1],,,,7/3>8[8:1],,,,6-2[8:1]/3-5[8:1],,,,6/3-1-5[16:5],,,,3,,,7h[16:3]/C,,,,,
{16}2/5,,3,,4,,5/2,,,,,,7/5,,6,,6,,7/5,,8,,1,,2b-7[8:1]/6b-3[8:1],,,,2b/6b,,,,7b/3b,,2b/6b,,5b/1b-5[8:1],,,,1/6b-2[8:1],,6,,6/3b-7[8:1],,,,3/5b-1[8:1],,4,,5/1bw5b[8:1],,,,A1,,,,B2/B3/B6/B7/E3f/E7f,,,,
{24}2bx-5-3[12:2]/7bx-4-6[12:2],,2bx/7bx,,2b/7b,,7b/2b,,,,,,1-5>2-7-4[16:12],,,,,,1/C,,,,,,D1/A8/D8/E1,,,,D7/E6/D6/A6,,,,,E3/B3/E4/B4/B2/D4/A3,,,E1/A1/D1/A8,,,,,,,,,
{16}3/6,,2x-8[8:1],,7,6,2x-4[8:1],,6,5,2x<8[8:1],,6,5,2x-4[8:1]/4xv7[8:1],,,,2/4x>8[16:3],,,,8x-4[8:1]*-6[8:1],,,,A8f,,,,3,,6,,
{24}4,5,4,5,4,5,6/3,,,,,,
{16}7x-1[8:1]/2x-6[8:1],,,,7/2x-5[4:1],,,,2/5x-8[16:3],,,8x-3[16:3],,,3x-5[8:1],,5x-7[8:1]*-3[8:1],,,,,,,,6h[1:2]/2h[1:2],
E
