&title=Final Flash Flight
&artist=Camellia
&first=0.164
&des=Sougetsu030
&lv_5=14
&des_5=Sougetsu030
&inote_5=
(180){4},,,,{1}7qq1>6[4:7],
B3/E3,
4h[4:7],
{8}7<8[2:1],{16},,,,,,,,,,,,7x/3x,6x/2x,
{1}5x/1xpp6>1[4:7],
{2}E8,E7,
{4}7h[4:1],5h[4:1],3h[8:1],1h[8:1],
{8}7/2,6,5/3,2,{16}6/1,7,8,1,2p6[8:1],3,4,5,
{8}2b/6<1-5[4:1],,,5,6,7<4[8:1],7,4q6b[8:3],
,,,2,2,3>5[4:1],3,E8f/B7/B8,
,,E8h[4:1],{16}E3,E4,{4}E5,{8}E2h[4:1],{16}E7,E6,
{4}E5,{8}6x/4x,{16}3,4,{8}2,8/1,{4}2/7q3[8:1],
{8}7b/3>8-4[4:1],,,4,3,2>5[8:1],2,5qq1b[8:3],
,,,7,7,6<4[4:1],6,E2f/B2/B1,
,,E2h[4:1],{16}E6,E5,{4}E4,2-6[8:1],
3-7[8:1],4-8[16:1],{2}5-1[16:1],
{24}2b/8b,7/3,6/4,5>7[8:3],,,,,,{8}6,6,5,5,4bV28-6[8:3],
,,,4,3,2>1[4:1],2,E6f/B6/B5,
,,5xh[8:1],{16}2,4,{4}3,{8}4h[8:1],{16}6,5,
{12}7,7,7,1-5[8:1],1,1,{2}4-8[8:1],
{24}7b/1b,6/2,5/3,4<2[8:3],,,,,,{8}3,3,4,4,5bp4[8:3],
{16},,,,,,8,7s3b[16:3],{2}6,
{8}1,1,2,2,3,3,4,4,
5h[8:1],6h[8:1],7h[8:1],8h[8:1],1h[8:1],2h[8:1],3h[8:1],4h[8:1],
{16}6,5,7,4,8,3,1,2,4,3,5,2,6,1,7,8,
{24}7,6,5,2,3,4,8w4[8:1],7,6,3,2,1,,,,,,,{4}B6/B2/E7/B5/B1/E3/Cf,
{16}1b/7b<5[16:1],,,1,,,{8}2,{16}2<8[16:1],,,4,,,{8}6,
{16}6<8[16:1],,,4,,,{8}3,2/1,3/4-1[16:1],{4}5/6,
8bh[4:1],{8}1q5[8:1],5,1,7p3[8:1],3,7,
2-6-8[4:1],4,2,5,{16}E5,E4,E3,E2,E1,E8,E7,E6,
2>4[16:1],,,1,,,{8}7,{16}7>1[16:1],,,5,,,{8}3,
{16}3>1[16:1],,,5,,,{8}6,7/8,4/3-6[16:1],{4}1/2,
8bh[4:1],{8}5<8[16:1],4,3,2>5[16:1],1,8,
7<4[8:1],7,{16}4,3,2,1,8-4b[16:1],7,6,5,{4}4/8b/Cf,
{16}6/2v5[8:1],,,5,{8}2,7,{16}8-3[16:1],,,3,{8}8,4,
{16}5>2[8:1],,,6,{8}5,7,7/8,6,5/4-8[8:1],3,
{4}2bh[4:1]/A4f,{8}7-3[16:1],1,3,4-8[16:1],6,8,
7-3-5[16:3],1,3,1,{16}E1,E8,E7,E6,E5,E4,E3,E2,
6h[16:3],,,5,{8}7,1/8,{16}4/2h[16:3],,,5,{8}3,6/4,
{16}1/7h[16:3],,,8,{8}6,5/4,3-7[16:1],2,{4}1-5[16:1],
1b<6[16:1],1b>4[16:1],1bpp7[8:3],{8}7,7<1[4:1],
,,,,{4}8-5[16:1],7xV13-5[16:5]/8xV24-6[16:5],
{2}D8f/A7/E8/A8,{16}7,4,6,5,{8}8,{16}2,5,
3,4,{8}1q5[8:1],7q3[8:1],1,{4}7b,{16}8/4,3/7,2/6,1/5,
{8}8/4,6/2,4/8,5/1,{4}2-6[16:1]/6-1[16:1],6b/2b>4-8[4:1],
8<6-2[4:1],{8}6,5,{4}4-8[8:1],4xV28-6[16:5]/5xV31-7[16:5],
{2}D5f/E5/A4/A5,{16}4,5,3,4,{8}1,{16}5,4,
6,5,{8}8p4[8:1],3p7[8:1],8,{4}3b,{16}5/1,2/6,3/7,4/8,
{8}5/1,{24}8x/4x,3x/7x,6x/2x,{8}5x/1x,7b/3b,{6}B8/B4/B5/E5/B1/E1f,{12}2q6[12:1],7,7,2,
{1}1b>7qq4b[8:5],
B1f/C/B2/E3/B8/E8/A1/A7/A3/B5/D5/D6,
{4},,,,,,,,,,,,E3h[1:2],
E4,,E1,
,E6,,C,
E7h[4:5],E6,,E1,
,3h[2:1],{16}E6,E5,E4,E3,E2,E1,E8,E7,
{4}Cf/E6h[4:1],E5h[4:1],E4h[4:1],E3h[4:1],
E2h[4:1],E1h[4:1],E8h[4:1],E7h[4:1],
5-8[8:5],4h[8:1],3h[8:1],2h[8:1],
4h[8:1]/1h[8:1],3-8[16:1]/2-5[16:1],3-6[16:1]/2-7[16:1],3/2,
{8}5xV31[16:3],6,{4}7,{8}6V42[16:3],7,{4}8,
{8}7V53[16:3],8,{4}1,{8}8-4b[8:1],1,{4}2,
{16}3,5,3,5,2,6,2,6,1,7,1,7,{32}2,3,4,5,8,7,6,5,
{16}1b-5b[16:1],,,5bw1b[16:1],,,,Cf/E3/A1/B2/B1/B8/E8/B5,,,,,8x-4b[16:1],7x,6x,5x,
{4}8b/4x,{16}5,4,6,3,7-5[16:1],2,8-4[16:1],1,{8}7,8,
6,5/3,{16}2,6,5,6,1<6[16:1],5,4-8[16:1],5,{8}1,4,
{16}1,2,3,4,8,7,6,5,2,4x,1,8,5,7,{8}5h[8:1],
{16}6,7,8,1,4,3,2,1,7,8,5,4,1-5b[16:1],3,{8}7,
{4}1b/Cf,{8}6/4,3/7,{16}2v5[16:1],7,1<6[16:1],8,{8}2,1,
{16}4,3,2,1,5,6,7,8,{8}1/2-5[16:1],4/5<8[16:1]*-1[16:1],{4}2/6,
{8},7/2,6/1,{16}7,8,7-4b[16:1],2,1-4[16:1],2,{8}7,1,
{24}6,7,8,3,2,1,7,6,5,2,3,4,{16}1bh[8:3],,,5bh[16:3],{32},,,,,4x/8x,3x/7x,2x/6x,
{4}5xv8[16:1]/1xv4[16:1],1b/5b/Cf,{16}2-4[16:1],7,1-5[16:1],8,{8}2,1,
3,6/3,{16}7,4,5,4,8-4[16:1],3,4,3,{8}8,1b,
{4}5h[8:1]/1h[8:1],{16}1/5,6/2,7/3,8/4,{4}5bh[8:1]/1bh[8:1],{16}8/4,7/3,6/2,5/1,
{4}4bh[8:1]/8bh[8:1],{32}1b,2,3,4,,,7b,6,5,4,,,1b,2,3,4,{8}6b,6,
4bxh[4:3]/7bx-2V86b[2:1],,,,,,,5bxh[8:7]/1bx-6-8-3b[2:1],
,,,,,,,7bxqq4<8b[16:11]/3bxqq8>4b[16:11],
,,,,,,,,8b/4b,
3b/7b,2b-4<5[8:1]/6b-8>1[8:1],1b/5b,,,{4}B1/Cf/E3/B2/B6/B5/E7,
{16}1x/7x<5[16:1],,,8,{8}7,2,{16}2<8[16:1],,,4,{8}2,6,
{16}6<8[16:1],,,5,{8}6,4,3-8[8:1],8-4[8:1],3,{16}7,6,
{4}5b,{8}3bh[8:1],{16}5,3h[8:1],,1,{8}3bh[8:1],{16}7,3h[8:1],,5,
{8}3bh[8:1],{16}6,5,8,1,4<8[16:3],3,{8}4,{16}1,2,3,4,{8}5,
{16}7/3>1[16:1],,,4,{8}3,6,{16}6>4[16:1],,,8,{8}6,2,
{16}2>4[16:1],,,1,{8}2,8,7<5[12:1],5-1[8:1],7,{16}2,3,
{4}4b,{8}7bh[8:1],{16}1,5h[8:1],,1,{8}3bh[8:1],{16}1,7h[8:1],,1,
{8}5bh[8:1],{16}3,4,2,7,8,6,2-5[16:1],1,3,1,{4}A2f,
{8}6-1[16:1]/2-5[16:1],6/2,{48}2b/6b/E2/E6,Cf,,,,,,,,,,,{16}8/4>1[16:1],,,5,{8}4,6,
{16}7-3[16:1],,,8,{8}7,1-5[16:1],5,1,8h[8:1],{24}4,7/3,2/6,
{4}5b/1b,{8}2bh[8:1],{16}6,4h[8:1],,7,{8}1bh[8:1],{24}5,4,3,2,1,8,
{16}7b/B3/B4f,,,1b/B5/B6f,,,{8}7<3[16:3]/4q1[16:3],{2}4x/7x,
{8}5x/2x,{16}2,4,3,5,{8}4h[8:1],{16}6,5,7,4,{8}8h[8:1],{16}1,8,
2,3,4,5,8,7,6,5,{24}1,8,7,6,5,4,8,1,2,3,4,5,
{8}6/1bpp5b[8:3],,,5,6,7<4[8:1],8,7b/4b,
,,,1,2/8,3>8[8:1]/7x<4[8:1],4,A7f/A3f,
,,E2h[4:1],{16}E7,E6,{4}E5,{8}E8h[4:1],{16}E3,E4,
{4}E5,{8}6x/4x,{16}3,4,{8}2,8/1,{4}7/2>5[8:1],
{8}2b/7bpp4b[8:3],,,4,3,2xw6b[8:1],1,2b,
{16},,,,,,2,6,1,5,8,4,{32}1/5,2/6,3/7,4/8,{8}5h[16:5]/1h[16:5],
{32},,,,,,,4/8,3/7,6bq1V74[32:145]/2bq5V38[32:145],
E
