&title=El último baile
&artist=Θ
&first=0
&des_5=TakiMio.
&lv_5=13
&inote_5=(175){2},,,{24},
{4}3/4h[4:3],,,5h[4:3],,,6h[4:3],,,7,,,6/5h[4:3],,,4h[4:3],,,3,2,1,
{16}78,,,56,,,3,4,2,,2,,
{8}8,8,8,Cf/2,2,2,34,34,45,45,56,56,
1,1,1,Cf/7,7,7,56,56,45,45,34,34,
5,5,5,Cf/3,3,3,78,78,16,16,25,25,
6,6,6,Cf/4,4,4,12,12,38,38,47,47,
{4}6-3-8p4[2:1],5,,2h[4:1],3h[4:1],{16}4,5,4,5,
{4}2-5-8q4[2:1],1,,6h[4:1],7h[4:1],8h[4:1],5h[4:1],{8}6,65,{4}65,1h[4:1],{8}8,81,{4}81,{16}2h[16:3]/4,,,3,,,34,,45,,45,,7h[16:3],,,8,,,81,,21,,21,,
{2}3V57q4[1:1],,,5h[1:1],,,{4}4h[2:1]/3h[2:1],,,5h[2:1]/6h[2:1],,,8-6[2:1]*q5[2:1]/1,,,,
{8},,,{24},
{16},
34,,,3,4,,4h[4:1],,2-6[8:1],,2,,1-7[8:1],,1,,
A5,E5,E4,,2h[4:1],,,,
1,,,1,2,,2h[4:1],,4-8[8:1],,4,,3-1[8:1],,3,,
{8}E7,E6,E5,E4,E3f,,,56,4,5,3h[8:3],,,4h[8:3],,,5,5,6,6,7,7,
{2}8b<4[4:1]*>4[4:1],
{4},
3h[4:3]/Cf/E5/B4/B5,,,7V53[4:1],3q8[4:1],1,
{8}5,4,3,2,18,18,
{4}5h[4:1]/6,4h[4:1],3,6h[4:3]/Cf/B8/E1/B1,,,4V28[4:1],8q5[4:1],7,
{8}1,8,7,6,54,43,
{4}1h[4:1]/2,3h[4:1],
{16}5,4,5,4,
{4}7h[4:3]/Cf/B2/E3/B3,,,5>1[4:1],1<5[4:1],5V31[4:1],1V75[4:1],5p1[4:1],8,7,65,34,
{16}18,,,1,8,,1,,
{4}1,6<4[4:1],,5,
{8}56,56,56,47,38,1b,{24}A8/A2,B8/B2,Cf,B4/B6,A4/A6,,,,
{8},,,
{16}E7,E6,E5,
{4},
{8}3xh[8:3],,,E5h[2:1],,,,6xh[8:3],,,,,,
{16}E3,E4,
{4}E5,
{8}6xh[8:3],,,E5h[2:1],,,,3xh[8:3],,,,,,A6,B5,B4,A3,,,A7/E7,,,,A1,,E2,,E3,,A4/E5,,,A6/E7,,,A8/E1,,,,A2/E3,,Cf,,,,
34,3,3,56,6,6,6/E1f,,5h[8:1],{16}3,4,3,4,3,4,
{8}2,B8,3,4,65,6,6,34,3,3,3/E1f,,4h[8:1],{16}6,5,6,5,6,5,
{8}7,B1,6,5,
34,34,2,2,5h[8:1],6h[8:1],7h[8:1],8,12,12,3,3,7h[8:1],6h[8:1],5h[8:1],4,
3h[16:1],3h[16:1],8h[16:1]/1h[16:1],8h[16:1]/1h[16:1],5h[16:1]/6h[16:1],
{16}6,3,4,2,6,5,
{32}7xbV53>7b[2:1]*V13<7[2:1],B7f,C,,
{2},
{8},,,
{24}A1f,E2,E3,,,,
8,,,A4,E4,E3,,,,5,,,
A8,B8,Cf,,,,6,,,E5,E4,E3,{8},8,1b/7b,,
{24}E7,E6,E5f,{8},2,,2V46q3[2:1],2,1,,E1/B8/B1,,7,,7V53p6[2:1],7,8,,1,,E3h[1:1],,E4,E5,E6,,E1,E8,E7,,5h[4:1],,3h[8:1],4h[8:1],2,2,6bh[4:1],,5,4bh[4:1],,2bh[4:1],,1b>8b[2:1],,E7,E6,E5,E4,E3,E2h[4:1],,
4,4,3,3h[4:1],,5,6,7h[4:1],,1,2,3h[4:1],,5,5,B3,E1fh[4:1],,
{24}E3,E4,E5,,,,,,,E7,E6,E5,,,,,,,,,,
{4}1q8[8:3]/2>7[8:3],,,
{8},{4}3h[2:1],,,4h[2:1],,,5h[2:1],,,6h[4:1],,56,5h[2:1]/6,,,4h[2:1]/5,,,3h[2:1]/4,,,{8}5,5,4,6,6,,
34,34,2,5,3,,56,56,7,4,6,,12,12,3,4,5,,78,78,6,5,4,,E2,E3,5,5,4,6,E8,E7,4,4,6,3,
6,5,4,3,E5f,,E1,E8,A7,E5,E4,A3,
{1}E2h[1:3]/E6h[12:37],,,
{12}E3/B3,E7/B7,
