&title=Viyella's Melancholy
&artist=Laur
&first=0.114
&des=LinsGiky
&des_5=LinsGiky
&lv_5=14+
&inote_5=(220){4}
,{16},,,
,,,,,E5,B4/B5,B3/B6,E3/E7,
{2}2xh[4:1]/7xh[4:1],{4}3h[4:1],6h[4:1],
1h[4:1],7h[4:1],3h[4:1],8h[4:1],
5h[4:1],6h[4:1],4h[4:1],1h[4:1],
3h[4:1],6h[4:1],4h[4:1],8h[2:1],
{2}3h[4:1],{4}5h[4:1],4h[4:1],
6h[4:1],2h[4:1],8h[4:1],1h[4:1],
7h[4:1],5h[4:1],1h[4:1],3h[2:1],
{2}7h[4:3],4h[4:1],
{4}3b/8b,{8}2,2,7,8,3,4,
{4}1V75[4:1],5V31[4:1],,,8/7,
{8}1,2,6,8,3,4,
{4}5<1[4:1],1>5[4:1],,,4b/6b,
{8}3-5[8:1],5-2[8:1],3,6,7,8,
{4}7>3[4:1]*V13[4:1],3<7[4:1]*V57[4:1],{8},,,,8<5[8:1],
1,2,3>8[8:1],4,5,6,7,
{4}7b/8b,2b/1b-5[8:1],8b/1b,{8}4b/8b,3b/7b,
{4}2b/6b,{64}1b,2,3,4,,,,,,,,,,,,,7b,6,5,4,,,,,,,,,,,,,1b,2,3,4,,,,,,,,,,,,,{16}6b,
3,4,3,7b,4,5,4,8b,5,6,5,{64}8b,7,{32}6,,,,,,,{4}6b/2b,
{64}8b,7,6,5,,,,,,,,,,,,,2b,3,4,5,,,,,,,,,,,,,8b,7,6,5,,,,,,,,,,,,,{16}3b,
6,5,6,2b,5,4,5,1b,5b,2b,4b,{4}3b,
E1/E5/B8/B1/B4/B5,{64}7b/2b,3,{32}4,,,{8}7b,{64}7b/2b,3,{32}4,{64},,,,,,,,,,,,7b/2b,3,{32}4,,,,,,,{16}8b,
5,6,5,7b,4,5,4,6b,3,4,3,{4}5b,
{8}5b/B1/B2/E2,3b/B6/E7/B7,{4}5b/B1/B2/E2,{16}2h[16:1],7h[16:1],,3h[16:1],6h[16:1],4h[16:1],7h[16:1],3h[16:1],
{1}8h[16:1],
{8}4b/8b,4b/8b,{4}4b/8b,{8}3-8[8:1],3,7-4[8:1],7,
1>3[8:1],2,5<8[8:1],6,4,3,{4}4>1[8:1]/1<6[8:1],
1/4,8/5-8[8:1],{8}1/5,2,7/3,6,
3-7[8:1],5v8[8:1],3,5,1b,{16}2,3,{4}4/8b-5b[8:1],
3/8b-3b[8:1],6/8b-4b[8:1],2/8b>3b[8:1],7/8b-6b[8:1],
4/8bv3b[8:1],5/8bp4b[8:1],2/8b,{8}1b/5b,1b/5b,
{4}5b<7b[8:1]/1b>3b[8:1],1bp5b[8:1]/5bp1b[8:1],1b>4b[8:1]/5b<8b[8:1],1bx/5bx,
{24}1,5,1,5,1,5,1,5,1,5,1,5,1,8/4,7/3,6/2,{3}5/1,
{16}2,4,3,5,4,6,5,6,4,7,3,8,2,7,1,6,
8,1,2,3,4/6,5,4,3,2/5,1,8,7/3,,,,,4,
6,4,6,3,5,3,5,2,4,2,4,1,5,1,5,
1,8,7,6,5/7,4,3,2,1/5,6,7,8,{4}1/3,
{16}2,8,2,8,2,8,2,8,4,7,4,7,5,6,5,6,
4h[16:1],7h[16:1],2h[16:1],8h[16:1],3h[16:1],6h[16:1],{8}2h[16:1],{16}1h/5h,2h/6h,3h/7h,4h/8h,{4}5h/1h,
{16}3,1,2,1,{4}3h[8:1],{16}7,8,6,8,{4}7h[8:1],
{16}3,4,3,2,{4}3h[8:1],{16}6,5,6,7,{4}6h[8:1],
{12}1h,5,3h,1,5h,7,8h,4,2h,8,4h,6,
{48}8h[4:1],,,,,,,,,,,,,E8/E1,B7/B1,B6/B2,{24}E6/E3,3xh[8:3]/5xh[8:3],,,,,,,,,,,,,,,{2}2b/6b,
{4}3,{16}3,4,{8}3,
{16}6,5,{8}6,{4}4/7,{16}6,5,{8}6,{16}2<8[8:1],5>3[8:1],{8}2,
{2}2b/5b,{4}7/4,{16}6,5,{8}6,
{16}3,4,2,4,{8}3,2/5,{16}3,4,{8}3,{16}6,5,{8}6,
{2}4b/7b,{4}5b/6b,5b/4b,
4b/3b,2b/5b,1b/6b,{8}7b/8b,{16}1b,6b,
{8}1b,1b,2b,2b,3b,3b,4b,4b,
{24}4b,5,6,7,8,1,2,3,4,5,6,7,{16}8/6b,{32}5,4,3,2,1,8,7,6,5,4,3,2,1,8,
{1}7b,
{24}8,8,8,8,8,8,8,8,8,8,8,8,8bh,8bh,8bh,8bh,8bh,8bh,{4}8bw4b[12:1],
{1}8b,
{4}Ch[4:1],,,,{1}Ch[4:1],
Ch[4:1],
Ch[1:1],
{8},,,,,,B6,B5,
{4}B4,B3/B2,{8}B7,B8,B1,B2,
,,{4}B6/B3,{8}B7,B2,B8,B1,
,,{4}E8/E2,{8}B7/B2,B3/B6,{4}E4/E6,
{32},,,,,,,,B6,B5,,,,,,,{8}B3,B2,{4}B1,
B7/E4,E6/B2,{8}B1,B8,B7,E7,
,,{4}B4/B3/E4,B7/B8/E8,B2/B1/E2,
{32}B6/B5,E6,,,,,,,{8}3,3,,6,,7,
{32}8,B8,,,,,,,{16}B1,B2,B3,B4,,,,,{4}B7/B6/E7/E3/B2/B3,
1/8,2,3,{8}4,6,
{16},,,,E7,B7,B8,E1,,,,,{8}4/1,3,
{4}2V46[8:5],{16}B4,A4,,,,,{8}6V82[8:5],{4}7,
4,2-4<6[4:3],4,5,
{16}6<8-2[8:5],,,,,1,,,,,,2>5v8[16:13],,,,,,,,,{8}1,
2,{4}3,{32}4,B4,,,,,,,{8}7/3,
,,2/6,,,{4}5/1,
8b/6b,7b/1b,8b/2b,1b/3b,
{6}2b/8b,2b/8b,2b/8b,8b/2b,,,6b/3b,
3b/6b,6b/3b,3b/6b,,,4b/2b,
6b/1b,7b/3b,1b/2b,1b/7b,8b/5b,
6b/1b,7b/2b,3b/6b,{24}4b,5,4,5,4,5,{4}4,
{6}6b/2b,5b/3b,4b/6b,{12}7b,5,7,5,{6}7,
4b/2b,6b/3b,4b/7b,{24}8,5,8,5,8,5,{4}8,
{6}7b/6b,6b/5b,4b/7b,3b/8b,7b/2b,1b/8b,
{32}2b/1bh[4:1],3,4,5,{8}6,{32},,,,,,,,7b/8bh[4:1],6,5,4,{8}3,{32},,,,,,,,5b/1b,
2/6,3/7,4/8,{8}1h[8:5]/5h[8:5],{1},,,{4},,,3,
3/4,4/5,6/5,
6/7,7/8,8/1,1/2,
{1}Ch[4:3],
{8}3/6,{16}3,4,{8}3,{16}6,5,{8}6,{16}8,1,{4}7/2-5[8:1],
{16}2b,7,{8}6,4,4/6,6,{16}5,4,6v4[8:1],3v8[0.3409##0.1364],7,2,
{8}6b,3b,,5/1,6,{16}1,5,2v7[8:1],6-4>3[0.3409##0.1364],3,7,
{8}2b,6b,{32},,,,2,1,8,7,,,,,{16}7,5,6,5,{8}7,
8/5,5v2[8:1]/8v3[8:1],,5b/8b,,4/1,{16}2-4[8:1],3,{8}2-8[8:1],
2bx,2bx,,1/5,{16},,3,7,4<6[8:1],7,{8}3/8-4[8:1],
4bx,8b,,3/6,{16},,5,4,6v1[8:1],4,{8}7/3-8[8:1],
6b,3b,,2/7,{16}3,4,{8}5/8,4/7,3/5,
{32}6b/2bh[8:1],5,{16}4,{48},,,,,,{12}3b/4b,3b/4b,3b/4b,{4}4b/3b-8b[6:1]*-6b[6:1]*w7b[6:1],3b,
{8}5bx/1bx,2bv7b[8:1]/4bv7b[8:1],,2b/4b,{16},,8,7,{8}8-3[8:1],1/6>4[8:1],
8b,6b,,2b/5b,{16},,3,3,{8}3b-8b[8:1],4b-7b[8:1],
3b/5b,4b,,6b/1b,{16},,8b,8b,{8}8b,8b,
7b/1b,1b-5b[8:1]/7b-3b[8:1],1b/7b,1b/7b,{16},,4,5,3,5,4,6,
{8}5-1[8:1],5,6p2[8:1],6,7-2[8:1],7,8-4[8:1],8,
1-6[8:1],1,2-7[8:1],2,3-8[8:1],3,4,4,
{16}5,1,5,1,5,1,5,1,4,8,4,8,4,8,4,8,
{32}8bx/4bh[8:1],1,2,3,,,,,2b/6bh[8:1],3,4,5,,,,,7b/1bh[8:1],6,5,4,,,,,{8}2b/5b,1b/6b,
{4}7b/8b,{8},,,,B8,B1,
{4}B2,B6/B5,B4,3>8[4:1],
8-4<6-1[4:3],2,,1-4[4:1],
{2}4-6-8[2:1],{4}8-2[4:1],2>4[4:1],
4-7[4:1],{8}7>4[2:1],E2,,,{4}4-2<1-7[4:3],
{8},,5,5,{4}5,4,
{1}6h[1:1]/3h[4:3],
{2}2b,{8}1/7,{16}8,8,{8}8,{16}7,1,
{8}7<5[8:1],{16}1b,2,{8}7/3,3,{4}2/4,{8}1b/5b,1b/5b,
1b/5b,{16}8,6,8,4,2,4,3,6,4,5,2,3,{32}1,8,7,6,
{8}5bh[4:1]/1bh[4:1],,,2bh[4:1]/6bh[4:1],{32},,,,,,,,,,5,3,5,3,5,3,
{2}4bh[4:1],{4}5b/2b,7b/8b,
{8}6/1bv7[8:1],6,6/1,6,6/8b-4[8:1],6,6/8,6,
3/6b-2[8:1],3,3/6,3,3/1b-6[8:1],3,3/1,{16}3,4,
5,6,4,7,5,6,4,7,3bh,7bh,2bh,6bh,1bh,5bh,8bh,4bh,
{32}8b/4x,1/5,2/6,3/7,4/8,5,6,7,8,1,2,3,4/8,1,2,3,4,5/3x,6/2,7/1,8,7x,6,5,{4}4b/8bw4b[8:1],
{2}8bx/E4/E5/E6/A5/D5/A4/D4/A3/B4/B3/B2/B1/E1/E8/B6/B7/B8/Cf/E3/B5,{4}5,3,
6,{12}2,,,{4}7,1,
(190){16}8,,,,,,,1x/7x,,,,,,,2,6,
2,6,2,6,{32}2,B2,C,B6,{8}A6,{24},,{12}5,{24},6,,,{6}7/4,
{24},3,,,,,,2/6,,,,,,3/5,,,,,,4/6,,,,,,5/7,
{48},,,,,,,,,6/8,,,,,,,,,,,,7/1,,,,,,,,,,,{4}8,
8>1>2>3<4<5<6<7>8[2:5],8/Ch[2:5],
E
