&title=7 Wonders
&artist=Sakuzyo
&first=0.094
&des=ナナミ
&des_6=ナナミ
&lv_6=15
&inote_6=(168)
{1},
{1}1bx-7-5-3-1[4:5]/5hx[4:4],
{4},,
{4}7,,
{1}8x>7[4:3]/4x,
{8},C,,,
{4}1,2,3pp6[4:3]/8,,,,,
{8}1h[8:3],,,4,4h[8:3],,,5>1[8:2],,
{16}1,8,7,6,5,4,3,2,1bx,,
{16}47,6,5,4,3,,1x/2x,,8,7,6,5,4,,1x/2x,,
{16}8,7,6,5,4-1[8:1]/8,,2,,4x/6x,,,,
{16}12,3,4,5,6,,8x/7x,,1,2,3,4,5,,8x/7x,,
{16}1,2,3,4,5/1w5[8:1],,,,1x,,,,
{16}7,6,5,4,3,,1x/2x,,8,7,6,5,4,,1x/2x,,
{16}8,7,6,5,4-7[8:1]/8-3[8:1],,,,48,,,,4x/8x,,,,3,5,2,8,1-5[16:1],,,1/6<4[16:3],,,6b,,,,,,
{16}E2,E1,E8,E7,E6,E5,E4,E3,
{1}E2/8xq5q2q7q4q1q6q3q8b[4:13],,,
{4},,
{16}1h[8:1],,,,2h[8:1],,,,3h[8:1]/8h[8:1],,,,4h[8:1]/7h[8:1],,,,6h[8:1]/5h[8:1],,,,2h[8:1]/5h[8:1],,,,3,,3,,8,,4,6,4,,5,3,5,,4,7,4,,5,2,5,,1,8,1,,27,,36,,36,,
{16}18,,2,4,3,,7,5,6,,1,3,2,,8,6,7,,4,5,3,,27,,18,,18,,
{16}36,,4,5,4,,7,6,7,,2,3,2,,8,1,8,,E2,E8,B2,B7,B3/B6/B4/B5/E5f,,,,,,
{16}1h[8:2],,8>3[8:1],7,6h[8:1],,8,,4,5,6,7,8,1,2-6[8:1],,,,2,,5,,7V51[16:3],,,,17,,3<6[8:1],,,,3,,1-5[8:1],8,7h[4:2],,1,,,,4-2[8:1],,2-5[8:1],,5-1[8:1],,,,,,
{16}8,7,6,5,
{16}1-6V84[8:3]/4,,2,,1,,5,5,,,6-1[8:1],,,,64,,4,3,2,,8-4[8:1],,7,,3,,1,,5-1[8:1],,6,,75,,6,6,,,1h[8:2],,5,6,7>5[8:2],,,,4,,4h[8:2],,,,
{16}6,7,8,1,
{16}4,,3,4,2-5[8:1],,6,,28,7,6,,3,2,1-5[8:1],,,,14,,6,,8,,4<7[8:1],3,2,,4,,,,18,,7,8,,2,1,,7,8,6V85[8:2],,,,5-1b[8:1],,3,,,,,,,,
{8}4>1[8:1],1<6[8:1],7,5h[8:2],,4,3/5-2[8:1],7,5/8-4[8:1],7,1-5[8:1]/8,2,16,7,
{16}48,,3,4,2,,6,5,7,,18,,27,,4bxqq5[8:3]/5bxpp4[8:3],,,,,,,,,,,,,,
{8}2/4h[8:2],,3,5h[8:2]/7,,6,1/3h[8:2],,2,8/6h[8:2],,7,18,18,
{8}7/5h[8:2],,6,4h[8:2]/2,,3,8/6h[8:2],,7,1/3h[8:2],,2,
{16}1,8,1,8,
{16}2,3,4,5,1,,7,6,5,4,8,,2,3,4,5,1,,7,6,5,4,8,,18,,18,,
{16}27,3,4,5,6,7,18,7,6,5,4,3,72,6,5,4,3,2,8-4[8:2]/1,2,3,4,5,,,,,,
{16}3,2,1,8,5x,,2,3,4,5,8x,,7,6,5,4,1x,,6,7,8,1,4x,,36,,36,,
{16}3,4,5,6,1x,,4,3,2,1,7x,,6,5,4,3,8x,,5,6,7,8,2x,,27,,27,,
{16}51,26,37,4,5,6,37,48,51,2,3,4,51,26,37,8,1,2,37,48,51,6,7,8,1x/5x,,,,
{16}48,73,62,5,4,3,62,51,48,7,6,5,48,73,6bxp4[4:13]/2bxp8[4:13],,
{4},
{1},,,
{4},,
{16}4,5,3,6,2,7,1,8,
{16}2-6-4[8:2]/7-1[8:1],,,,27,,,,1-5[8:1],,,3,1,,8,,,,16,,27,,38,,1/4-1[8:1],,5,,4/7h[8:2],,,,8,1,2,3,4V28[8:2],,,,1,8,7,6,5V71[8:2],,,,
{16}8,1,2,3,4,5,6,7,8w4[8:1],,,,8,,,,
{16}2-6[8:1],,,5,2,,8,,,,83,,72,,61,,8/5-8[8:1],,4,,5/2h[8:2],,,,1,8,7,6,5V71[8:2],,,,8,1,2,3,4V28[8:2],,,,
{16}1,8,7,6,5,4,3,2,1w5[8:1],,,,1,,,,
{16}7-4[8:1],,,5,7,,1,,,,15,,26,,37,,4-1[8:1]/8-5[8:1],,15,,48,,,,8b-3[16:1]*-5[16:1],,,,8b,,,2bx-5[16:1]/6bx-1[16:1],,,2b/6b,,,,,,
{16}4,8,3,7,2,6,1,5,8,8,7,7,6,6,5,5,4,4,3,3,2,2,1-5[8:1],,,,16,7,8,,4,3,2,,1x/8x,,
{16}2,4,3,8,6,7,1,3,2,4,3,6,1-4-7-2[4:2]*-6-3-8[4:2],8,2,,,,,,,,,,,,,,
{32}1bx-5[16:1],2,3,4,5,6,1b,,,,,,,,,,1bx-5[16:1],8,7,6,5,4,1b,,,,,,,,,,1bx,2,3,4,5,6,1b,8,7,6,5,4,,,,,1b,,,,,,,,
{32}8bx-4[16:1],7,6,5,4,3,8b,,,,,,,,,,8bx-4[16:1],1,2,3,4,5,8b,,,,,,,,,,8bx,7,6,5,4,3,8b,1,2,3,4,5,,,,,8b,,,,,,,,
{32}1bV75[8:1],2,3,4,5,6,1b,,,,,,,,,,8bV64[8:1],1,2,3,4,5,8b,,,,,,,,,,7b,8,1,2,3,4,5,6,7bw3[8:1],,,,,,,,7b,,,,,,,,
{32}8bV24[8:1],7,6,5,4,3,8b,,,,,,,,,,1bV35[8:1],8,7,6,5,4,1b,,,,,,,,,,2b,1,8,7,6,5,4,3,2bw6[8:1],,,,,,,,2b,,,,,,,,
{32}47,36,25,14,,,5,6,7,8,1,,5b,,,,47,36,25,14,,,5,6,7,8,1,,5b,,,,4,3,2,1,8,7,6,5,4>1[8:1]/8<5[8:1],,,,3x/7x,,,,4x/8x,,,,,,,,
{32}52,63,74,85,,,4,3,2,1,8,,4b,,,,52,63,74,85,,,4,3,2,1,8,,4b,,,,5,6,7,8,1,2,3,4,5/1w5[8:1],,,,2x/8x,,,,1x,,,,,,,,
{16}3,4,2,2h[16:3],
{32}1,8,7,6,5,,,,
{16}3,4,2,4,
{32}1,8,7,6,5,4,3,2,
{16}1-5[8:1],,26,6,1,,7,,8b,,,,
{16}6,5,7,7h[16:3],
{32}8,1,2,3,4,,,,
{16}6,5,7,5,
{32}8,1,2,3,4,5,6,7,
{16}4,8,3,7,2,6,1,5,
{32}2,3,4,5,6,7,8,1,
{8}2b-6[8:1]/6b,,2/4<7[8:1],,4/1-5[8:1],,
{16}12,3,4qq8[8:4],,,,,,,,8,,7,,6,,5,,1/6V85[8:2],2,3,,5-1[8:1],,,,3,,2,3,4V25[8:2],,,,5V31[8:2],,6,,7,,8,7,6,5,
{8}4/2b-6[8:1],,2/4<7[8:1],,4/1-5[8:1],,
{16}12,3,4qq7[8:4],,,,,,,,8,,7,,6,,5h[8:2],,8-4[8:1],1,2-5[8:1],,8<5[8:1],,2,,8,,4,3,2x-5[16:1]/4x-7[16:1],,,,2b/4b,,,
{16}4x/8x,3x/7x,2x/6x,
{32}1b/5,8b,7b,6b,5b,4b,3b,2b,1b-5[8:1],,,,,,,,
{24}6b,7,8,1,2,3,4/8-4[8:1],,,,,,3b,2,1,8,7,6,
{24}5bx/1bx,48,37,26,,,1bx/4bx,25,36,47,,,
{32}8bx,7,6,5,4,3,2,1,8b-4[8:1],,,,,,,,
{24}3b,2,1,8,7,6,5/1-5[8:1],,,,,,6b,7,8,1,2,3,
{24}4bx/8bx,51,62,73,,,8bx/5bx,74,63,52,,,
{32}1bx,2,3,4,5,6,7,8,1b/5b,,,,,,,,
{16}2,4,3,1,5,7,8,6,1,4,3,8,
{16}5,7,
{24}8,6,8,
{16}4,2,
{24}8,3,8,
{24}1,7,1,7,1,7,
{24}2,6,3,5,4,6,3,7,2,8,1,7,2,6,3,5,4,6,3,7,2,8,1,7,2bx/6bx,,,,,,
{16}3,4,5,6,75,68,17,28,3V15b[4:6]/1v8-6b[4:6],
